<?xml version="1.0" standalone="no"?>
<!DOCTYPE svg PUBLIC "-//W3C//DTD SVG 1.1//EN" "http://www.w3.org/Graphics/SVG/1.1/DTD/svg11.dtd" >
<svg xmlns="http://www.w3.org/2000/svg">
<metadata></metadata>
<defs>
<font id="kameronbold" horiz-adv-x="1258" >
<font-face units-per-em="2048" ascent="1638" descent="-410" />
<missing-glyph horiz-adv-x="505" />
<glyph horiz-adv-x="2048" />
<glyph horiz-adv-x="2048" />
<glyph unicode="&#xd;" horiz-adv-x="682" />
<glyph unicode=" "  horiz-adv-x="505" />
<glyph unicode="&#x09;" horiz-adv-x="505" />
<glyph unicode="&#xa0;" horiz-adv-x="505" />
<glyph unicode="!" horiz-adv-x="687" d="M168 110q0 52 46 86.5t127 34.5q39 0 70.5 -9t54 -24.5t35 -38t12.5 -49.5q0 -53 -44.5 -87.5t-127.5 -34.5t-128 32t-45 90zM183 1190v24t0.5 34t1 34.5t1.5 24.5h326q1 -8 1.5 -25t1 -35.5t0.5 -35.5v-25q0 -36 -5 -95.5t-13 -132t-18 -150.5t-20 -150t-20 -131.5 t-17 -94.5h-148q-7 34 -16.5 93.5t-19.5 131.5t-20 151t-17.5 152t-12.5 133.5t-5 96.5z" />
<glyph unicode="&#x22;" horiz-adv-x="740" d="M87 1293q0 37 11.5 65t31 46.5t43.5 27.5t50 9q24 0 47 -8.5t40.5 -25t28.5 -41.5t11 -58q0 -27 -2.5 -57t-10 -76t-20 -114.5t-33.5 -172.5h-130q-9 51 -20.5 108.5t-22 112.5t-17.5 103.5t-7 80.5zM418 1293q0 37 11.5 65t31 46.5t43.5 27.5t50 9q24 0 47 -8.5 t40.5 -25t28.5 -41.5t11 -58q0 -27 -2.5 -57t-10 -76t-20 -114.5t-33.5 -172.5h-130q-9 51 -20.5 108.5t-22 112.5t-17.5 103.5t-7 80.5z" />
<glyph unicode="#" horiz-adv-x="1471" d="M95 391l25 182h248l75 269h-286l28 180h308l117 406h190l-119 -406h290l119 406h188l-118 -406h217l-25 -180h-242l-74 -269h277l-26 -182h-300l-119 -405h-190l119 405h-288l-119 -405h-189l120 405h-226zM555 572h292l77 270h-293z" />
<glyph unicode="$" horiz-adv-x="1187" d="M107 119v249h191q1 -59 15.5 -103t44 -74.5t76 -48t111.5 -23.5v446q-215 55 -320 150.5t-105 234.5q0 77 29.5 140t85 109t136.5 73t183 33v141h112v-140q115 -8 216 -35.5t186 -77.5l1 -249h-186q0 104 -52 161.5t-165 68.5v-411q127 -34 212 -75.5t136.5 -91t73 -108 t21.5 -126.5q0 -72 -28.5 -137t-84.5 -115.5t-141 -82.5t-197 -37v-181h-113v183q-140 7 -250.5 38.5t-187.5 88.5zM327 993q0 -74 54.5 -120.5t172.5 -78.5v385q-108 -8 -167.5 -55t-59.5 -131zM658 115q51 4 93 19t72 40.5t46 62t16 83.5q0 80 -55.5 133t-171.5 82v-420z " />
<glyph unicode="%" horiz-adv-x="1797" d="M63 972q0 85 23 152t66 114t105 72t140 25q79 0 140.5 -26t103.5 -73t64 -114.5t22 -149.5q0 -86 -23 -153.5t-66 -114.5t-104.5 -71.5t-139.5 -24.5t-139.5 25t-104 72t-65 114.5t-22.5 152.5zM263 969q0 -127 32 -185.5t101 -58.5q33 0 58 13.5t41.5 43t25 76.5 t8.5 114q0 131 -30.5 189.5t-102.5 58.5q-71 0 -102 -62t-31 -189zM374 -15l890 1337h159l-889 -1337h-160zM1070 339q0 85 23 153t66 114.5t105 71.5t140 25t139 -25.5t103.5 -72.5t64.5 -115t22 -153t-23 -152t-66 -113.5t-104.5 -71t-138.5 -24.5q-78 0 -139.5 25 t-104 72t-65 114t-22.5 152zM1268 336q0 -126 32 -184.5t102 -58.5q69 0 101.5 57.5t32.5 188.5t-31 190t-103 59q-70 0 -102 -62.5t-32 -189.5z" />
<glyph unicode="&#x26;" horiz-adv-x="1699" d="M100 397q0 69 20 130t57.5 113t91 95t119.5 76q-51 50 -70.5 104t-19.5 102q0 80 30 143t86.5 107t136.5 67.5t180 23.5q67 0 122.5 -8t98.5 -18.5t71.5 -21.5t41.5 -18l6 -219l-166 -15q-3 37 -17.5 64t-37 44.5t-51.5 26t-60 8.5q-44 0 -82.5 -11t-67.5 -32.5t-46 -52 t-17 -69.5q0 -20 2 -42t10.5 -46t24 -50.5t42.5 -56.5l497 1q0 3 1 12.5t2.5 24t3.5 32t4 35.5q4 42 11 94l261 34v-232h245v-139h-244v-361q0 -44 3 -76.5t12 -54t26 -32.5t45 -11q67 0 67 93l111 14v-31q-2 -75 -20.5 -126.5t-53.5 -83.5t-85.5 -46t-114.5 -14 q-183 0 -251 111q-103 -55 -211 -83t-234 -28q-136 0 -243.5 29.5t-182.5 84.5t-114.5 133.5t-39.5 175.5zM418 416q0 -47 17.5 -91.5t57.5 -79.5t105.5 -56t160.5 -21q169 0 323 86q-1 6 -1.5 16t-0.5 21.5v22.5v17v372h-484q-94 -57 -136 -131.5t-42 -155.5z" />
<glyph unicode="'" horiz-adv-x="435" d="M87 1293q0 37 11.5 65t31 46.5t43.5 27.5t50 9q24 0 47 -8.5t40.5 -25t28.5 -41.5t11 -58q0 -27 -2.5 -57t-10 -76t-20 -114.5t-33.5 -172.5h-130q-9 51 -20.5 108.5t-22 112.5t-17.5 103.5t-7 80.5z" />
<glyph unicode="(" horiz-adv-x="795" d="M128 555q0 124 29.5 245.5t91 231t156.5 201.5t226 157l95 -101q-149 -130 -216.5 -310t-67.5 -415q0 -118 15.5 -222t49 -195.5t88 -172t132.5 -150.5l-94 -100q-141 72 -238 169.5t-156 207.5t-85 227t-26 227z" />
<glyph unicode=")" horiz-adv-x="795" d="M41 1343q37 12 76 24t81 23q229 -171 348 -380t119 -446q0 -115 -26 -233.5t-85.5 -229t-156 -208t-238.5 -169.5l-95 100q78 70 133 150.5t89.5 173t50.5 197t16 222.5q0 246 -74.5 438t-237.5 338z" />
<glyph unicode="*" horiz-adv-x="1046" d="M125 723l123 72q50 8 100 24.5t105 44.5q-57 28 -105.5 39t-97.5 19l-125 74l105 167l117 -80q59 -85 146 -153q-8 61 -23.5 107.5t-35.5 91.5l-4 142h198l-4 -140q-20 -47 -32.5 -93.5t-18.5 -97.5q45 35 78 70t60 73l118 80l104 -167l-123 -74q-56 -7 -105.5 -19.5 t-103.5 -38.5q51 -26 102.5 -43.5t107.5 -25.5l122 -72l-104 -167l-120 80q-28 41 -58.5 78.5t-79.5 77.5q5 -54 18 -104.5t35 -99.5l4 -141h-194v144q21 47 37.5 95.5t23.5 114.5q-50 -38 -83 -78t-63 -87l-119 -80z" />
<glyph unicode="+" horiz-adv-x="1537" d="M188 540v196h481v481h199v-481h480v-196h-480v-482h-199v482h-481z" />
<glyph unicode="," horiz-adv-x="646" d="M125 -171q31 6 49.5 25t28 43t12.5 48l5 40l-76 24l27 242h343l-40 -229q-12 -69 -36.5 -125.5t-60 -98t-81 -66t-99.5 -30.5z" />
<glyph unicode="-" horiz-adv-x="828" d="M82 327v265h661v-265h-661z" />
<glyph unicode="." horiz-adv-x="646" d="M145 110q0 52 46 86.5t127 34.5q39 0 70.5 -9t54 -24.5t35 -38t12.5 -49.5q0 -53 -44 -87.5t-128 -34.5q-82 0 -127.5 32t-45.5 90z" />
<glyph unicode="/" horiz-adv-x="503" d="M-49 -96l396 1418h181l-397 -1418h-180z" />
<glyph unicode="0" d="M96 656q0 161 36 287t104 212.5t167.5 132t225.5 45.5q122 0 220.5 -43.5t167.5 -129t106.5 -212t37.5 -292.5q0 -173 -39 -301t-109.5 -212.5t-168.5 -126.5t-215 -42q-122 0 -220.5 44.5t-168 130.5t-107 213.5t-37.5 293.5zM384 668q0 -126 13 -220t42 -156.5 t75.5 -93t114.5 -30.5q132 0 188 122.5t56 366.5q0 245 -59 363.5t-185 118.5q-128 0 -186.5 -118.5t-58.5 -352.5z" />
<glyph unicode="1" d="M284 946v201q100 16 180.5 59t137.5 102h191v-1030q0 -32 2.5 -52.5t15.5 -32.5t39 -16.5t74 -4.5h69v-172h-74t-74.5 0.5t-81 1t-92.5 0.5q-59 0 -106.5 -0.5t-89.5 -0.5t-82 -0.5t-83 -0.5v172h94q42 0 64.5 6.5t33.5 19.5t13 33.5t2 48.5v754q-29 -16 -60.5 -30 t-62 -25.5t-59 -20t-51.5 -12.5z" />
<glyph unicode="2" d="M135 11.5v11.5q0 89 11.5 160.5t35 131t60.5 110t88 98t116.5 95.5t146.5 103q66 45 108.5 79t66.5 64.5t33.5 60t9.5 65.5q0 79 -59 123.5t-158 44.5q-65 0 -108.5 -15.5t-69.5 -44.5t-37.5 -71.5t-13.5 -96.5l-200 14l1 260q91 69 207.5 99.5t259.5 30.5 q109 0 195.5 -25t146.5 -72.5t91.5 -115.5t31.5 -154q0 -75 -27.5 -132.5t-76 -106t-116.5 -92.5t-149 -93q-78 -47 -139.5 -90t-104 -85.5t-65.5 -86t-23 -89.5h409q38 0 59.5 6.5t33 28.5t15.5 63.5t6 111.5h169v-402h-953q-1 5 -1 11.5z" />
<glyph unicode="3" d="M117 409l207 9q2 -130 66.5 -190t191.5 -60q51 0 95.5 13.5t78 39.5t53 65.5t19.5 91.5q0 62 -22.5 106t-63 72.5t-97.5 42t-126 14.5v154q66 7 117 21.5t86 39.5t53.5 62t18.5 90q0 43 -16 79t-45.5 61.5t-71 39.5t-91.5 14q-59 0 -100 -15.5t-66.5 -44.5t-37 -71 t-12.5 -95l-209 6l1 266q81 58 195.5 85.5t254.5 27.5q111 0 199 -23t149 -68t93.5 -111t32.5 -151q0 -109 -61 -181t-175 -99q63 -14 114.5 -40.5t87.5 -67.5t56 -96.5t20 -125.5q0 -94 -36.5 -167.5t-106 -124.5t-169 -77.5t-225.5 -26.5q-83 0 -164 20t-145.5 69.5 t-105 133.5t-43.5 212z" />
<glyph unicode="4" d="M89 607l577 701h302v-742h190v-164h-190v-163q0 -26 3.5 -42t14.5 -24.5t31.5 -11.5t55.5 -3h57v-158q-18 0 -59.5 0.5t-91.5 0.5t-101 0.5t-88 0.5q-48 0 -85.5 -0.5t-70 -0.5t-63 -0.5t-64.5 -0.5v158h76q35 0 59 3t38.5 11.5t20.5 22.5t6 37v170h-584q-8 52 -16 103 t-18 102zM262 563h448v567z" />
<glyph unicode="5" d="M142 342l208 5q14 -91 71.5 -135t167.5 -44q57 0 103.5 16.5t79.5 49.5t51 81t18 111q0 56 -17.5 100.5t-49.5 75.5t-78.5 47.5t-103.5 16.5q-76 0 -133.5 -25.5t-97.5 -73.5l-164 40v701h870v-239h-174q0 32 -2.5 46.5t-19.5 14.5h-470q-4 -98 -7 -175q-2 -33 -2.5 -64 t-1.5 -56q-1 -29 -2 -55q61 42 130.5 62.5t152.5 20.5q103 0 187 -30.5t144 -86.5t93 -135.5t33 -177.5q0 -111 -36.5 -196.5t-104 -144t-163.5 -88.5t-215 -30q-131 0 -248.5 31.5t-217.5 91.5z" />
<glyph unicode="6" d="M127 635q0 157 34.5 286t105.5 220.5t178.5 142t254.5 50.5q134 0 233.5 -27.5t177.5 -75.5l10 -226l-195 -11q-8 97 -65 141t-171 44q-75 0 -127.5 -29t-86.5 -86t-50.5 -140t-18.5 -191q63 65 147 98.5t179 33.5q97 0 176.5 -32t136 -89.5t87 -137t30.5 -174.5 q0 -101 -36.5 -185t-102.5 -144.5t-158.5 -94t-204.5 -33.5q-119 0 -217 40t-168.5 121.5t-109.5 205.5t-39 293zM410 444q0 -133 65.5 -204.5t180.5 -71.5q109 0 170.5 63t61.5 183q0 64 -15 115t-44.5 87t-72.5 55t-99 19q-60 0 -116 -25t-101 -71q-15 -32 -22.5 -70 t-7.5 -80z" />
<glyph unicode="7" d="M185 916v392h936v-199q-107 -165 -185 -323.5t-131.5 -301.5t-84.5 -266t-44 -218h-312q21 143 70 291.5t118.5 294t156.5 283.5t184 260h-373q-51 0 -83.5 -3.5t-51 -14t-26 -31t-7.5 -54.5v-110h-167z" />
<glyph unicode="8" d="M97 354q0 122 71 204t221 132q-120 33 -183.5 109t-63.5 185q0 82 33 147t95.5 110.5t152 69.5t202.5 24q115 0 207 -23.5t156.5 -68t99 -108t34.5 -144.5q0 -114 -64.5 -187.5t-192.5 -112.5q153 -42 223.5 -125t70.5 -210q0 -81 -30 -150.5t-95 -121t-166.5 -80.5 t-243.5 -29q-130 0 -228.5 26.5t-165 75.5t-100 119t-33.5 158zM358 365q0 -49 20 -86t56 -61.5t86 -37t110 -12.5q55 0 105.5 12t89.5 36t62 61t23 89q0 89 -70 157t-212 103q-134 -31 -202 -96t-68 -165zM404 1001q0 -81 58 -138t173 -92q217 62 217 223q0 43 -18 73 t-48 48t-69.5 26t-82.5 8q-45 0 -87 -8.5t-73.5 -26.5t-50.5 -46t-19 -67z" />
<glyph unicode="9" d="M105 881q0 103 36 186.5t102 142.5t158.5 91t204.5 32q119 0 217 -39.5t168.5 -121t109.5 -206.5t39 -297q0 -156 -32.5 -283.5t-99.5 -219t-169.5 -141.5t-241.5 -50q-131 0 -239.5 31.5t-191.5 95.5l-1 202l202 11q10 -98 60 -139.5t151 -41.5q78 0 132 28.5t88 85 t50 140t17 194.5q-62 -68 -145.5 -101.5t-182.5 -33.5q-98 0 -178 32t-136.5 89t-87 137t-30.5 176zM379 892q0 -61 15 -110.5t44 -85t71.5 -55t97.5 -19.5q137 0 236 88q11 61 14 140q0 66 -16 119.5t-47.5 91t-77.5 58t-106 20.5q-111 0 -171 -65t-60 -182z" />
<glyph unicode=":" horiz-adv-x="663" d="M158 111q0 25 12 47t34 38.5t54 25.5t72 9q39 0 71 -9t54.5 -24.5t35 -37.5t12.5 -49q0 -53 -44.5 -88t-128.5 -35q-82 0 -127 32.5t-45 90.5zM158 782q0 52 45.5 86.5t126.5 34.5q78 0 125.5 -33.5t47.5 -87.5q0 -53 -44.5 -87.5t-128.5 -34.5q-82 0 -127 32t-45 90z " />
<glyph unicode=";" horiz-adv-x="663" d="M124 -171q31 6 49.5 25t28 43t12.5 48l5 40l-76 24l27 242h343l-40 -229q-12 -69 -36.5 -125.5t-60 -98t-81 -66t-99.5 -30.5zM167 782q0 52 46 86.5t127 34.5q39 0 70.5 -9t54 -24.5t35 -38t12.5 -49.5q0 -53 -44.5 -87.5t-127.5 -34.5q-82 0 -127.5 32t-45.5 90z" />
<glyph unicode="&#x3c;" horiz-adv-x="1536" d="M192 548v180l1151 472v-214l-872 -348l872 -348v-213z" />
<glyph unicode="=" horiz-adv-x="1536" d="M187 322v196h1161v-196h-1161zM187 759v197h1161v-197h-1161z" />
<glyph unicode="&#x3e;" horiz-adv-x="1536" d="M192 77v213l872 348l-872 348v214l1151 -472v-180z" />
<glyph unicode="?" horiz-adv-x="1082" d="M75 955l22 275q88 51 193.5 78t228.5 27q135 0 231.5 -26.5t158 -73t90.5 -109.5t29 -136q0 -89 -38 -156.5t-98.5 -123.5t-135.5 -107t-150 -108l-10 -80h-202q-4 12 -7.5 28.5t-5.5 33.5t-3.5 31.5t-1.5 22.5q0 64 26.5 102.5t66.5 65t86 47t86 49t66.5 71t26.5 112.5 q0 50 -18 89t-48.5 65.5t-72 40.5t-88.5 14q-101 0 -161 -56.5t-60 -175.5h-211zM323 110q0 52 45.5 86.5t126.5 34.5q78 0 125 -33.5t47 -87.5q0 -53 -44 -87.5t-128 -34.5q-82 0 -127 32t-45 90z" />
<glyph unicode="@" horiz-adv-x="1720" d="M50 518q0 117 29 228t83 208.5t132 178.5t176 139.5t215 91t249 32.5q180 0 317 -56t229.5 -152t139 -223t46.5 -268q0 -94 -21.5 -178t-57.5 -155t-84.5 -128t-103 -96.5t-111.5 -61t-111 -21.5q-86 0 -127 43.5t-43 134.5q-1 -2 -5 -4q-66 -87 -133.5 -128.5 t-151.5 -41.5q-66 0 -121.5 27t-95.5 76.5t-62 119t-22 153.5q0 62 15 129.5t44 132.5t70 123t93.5 102t114.5 69.5t133 25.5q84 0 138 -45.5t91 -131.5l37 152h153l-142 -647q-7 -35 -14 -68t-7 -56q0 -73 65 -73q31 0 67 15.5t76 44.5q49 36 90 85t70 111.5t45 137 t16 161.5q0 135 -45 245.5t-127 189t-198 121.5t-258 43q-174 0 -314.5 -62t-240 -170.5t-153.5 -255t-54 -314.5q0 -163 55 -295.5t152 -226t229.5 -144.5t287.5 -51q158 0 299.5 51.5t277.5 157.5l107 -21q-65 -62 -144 -113t-166.5 -88.5t-181.5 -58t-190 -20.5 q-191 0 -348.5 63t-270.5 174t-175.5 261.5t-62.5 326.5zM587 372q0 -100 41.5 -160.5t116.5 -60.5q47 0 88.5 26.5t76 71.5t62 103.5t46 122.5t28.5 129t10 123q0 43 -10.5 79.5t-31 63.5t-50 42t-67.5 15q-46 0 -87 -26t-75.5 -69t-61.5 -99.5t-46.5 -118.5t-29.5 -124.5 t-10 -117.5z" />
<glyph unicode="A" horiz-adv-x="1454" d="M4 0v178q36 4 58.5 7t37.5 11.5t26 25t23 46.5q8 19 25 62t39.5 101t49.5 126.5t55 139.5t55 140t50 127.5t40 102t25 63.5l46 178h387q87 -236 159 -430q31 -83 61 -164.5t55.5 -150t43.5 -117t24 -64.5q25 -69 39 -109t31.5 -61t44.5 -27.5t78 -7.5v-177 q-59 0 -114.5 1t-128.5 1q-86 0 -168.5 -0.5t-178.5 -1.5v165h11.5h15.5t15 0.5t10 0.5q48 2 66 10t18 28q0 12 -5 29.5t-13 40.5l-64 189h-461q-3 -11 -14 -42.5t-23.5 -67.5t-22.5 -67t-12 -39q-5 -14 -7.5 -25.5t-2.5 -18.5q0 -22 13.5 -29.5t45.5 -8.5q3 0 13 -0.5 t22 -0.5h22.5h14.5v-164q-61 0 -123 1t-134 1h-65.5t-59.5 -0.5t-59 -1t-64 -0.5zM506 593h369l-179 526l-2 1z" />
<glyph unicode="B" horiz-adv-x="1421" d="M73 0v178h52q34 0 53 6.5t28.5 18.5t11.5 30t2 41v737q0 19 -1.5 39.5t-10 38t-26.5 29t-51 11.5q-3 0 -11 0.5t-16.5 0.5h-17h-13.5v178h638q166 0 276.5 -22t176.5 -64.5t93.5 -104.5t27.5 -142q0 -50 -16 -96.5t-47 -84.5t-76.5 -65.5t-104.5 -39.5q140 -29 218 -113 t78 -214q0 -79 -27.5 -145.5t-92 -114.5t-171.5 -75t-265 -27h-708zM546 182h165q139 0 210 49t71 151q0 56 -18 96t-58.5 66t-104.5 38.5t-155 12.5h-110v-413zM546 745h160q249 0 249 193q0 45 -14.5 79.5t-45.5 58.5t-80 36.5t-119 12.5h-150v-380z" />
<glyph unicode="C" horiz-adv-x="1446" d="M109 654q0 149 45.5 274t130.5 215t207 140t276 50q46 0 95 -8t94 -23t83.5 -36t65.5 -47l5 86h222v-410l-205 1q-8 114 -82 178.5t-214 64.5q-85 0 -152 -31t-113.5 -91.5t-71.5 -151t-25 -208.5q0 -116 25 -207t72 -153.5t114.5 -95.5t153.5 -33q76 0 133.5 16t96.5 52 t60.5 94t25.5 142l204 -44l-15 -304q-118 -79 -251 -114.5t-288 -35.5q-182 0 -313 53t-215 145t-124 216t-40 266z" />
<glyph unicode="D" horiz-adv-x="1584" d="M65 0v178h49q31 0 49 8.5t27 23t11.5 34.5t2.5 44v36.5t-0.5 86.5t-0.5 120v136v368q0 21 -3.5 38t-13 30t-27 20.5t-45.5 7.5h-49v177h560q426 0 635 -161.5t209 -485.5q0 -187 -58.5 -313.5t-166 -204t-259 -110.5t-338.5 -33h-582zM531 194h144q110 0 192.5 27 t137 84.5t82 146.5t27.5 213q0 234 -108.5 341.5t-331.5 107.5h-143v-920z" />
<glyph unicode="E" horiz-adv-x="1316" d="M68 0v178h74q26 0 40.5 9t22 25t9 36t1.5 43v720q0 22 -1 44t-8 39t-21.5 27.5t-42.5 10.5h-70v176h1139v-364h-195v41q0 48 -10 74t-28 37.5t-44 13.5t-58 2h-335v-363h197q22 0 37.5 2.5t26.5 11.5t18.5 28t12.5 52h85v-354h-86q-6 32 -13 51t-18 28.5t-26 12t-37 2.5 h-197v-389h349q37 0 62 5t40.5 22t22.5 48.5t7 84.5v32h193v-386h-1147z" />
<glyph unicode="F" horiz-adv-x="1213" d="M53 0v178h67q27 0 45 3.5t28.5 15.5t14.5 35t4 62v722q0 33 -2 55t-11 35.5t-27.5 19t-51.5 5.5h-65v177h1141v-374h-194v48q0 48 -10 74t-27 38.5t-39.5 15t-47.5 2.5h-339v-364h176q25 0 42.5 1.5t29.5 9t19 24.5t10 48h75v-331h-75q-3 28 -10 44t-18 24.5t-28.5 11 t-41.5 2.5h-179v-321q0 -27 5 -43.5t17 -25t31.5 -11.5t48.5 -3h61v-178h-83t-82.5 0.5t-89.5 1t-103 0.5q-49 0 -87.5 -0.5t-72 -0.5t-65 -0.5t-66.5 -0.5z" />
<glyph unicode="G" horiz-adv-x="1554" d="M100 656q0 155 51.5 280t142 213.5t213 136t265.5 47.5q52 0 104 -7.5t100 -22.5t90 -38t75 -54l4 93h223v-398h-204q-27 115 -107.5 174t-208.5 59q-95 0 -167 -34t-120.5 -97.5t-73 -154t-24.5 -203.5q0 -233 105 -357.5t308 -124.5q48 0 88.5 7t70 20.5t46 33.5 t16.5 46v161q0 27 -6 41t-21.5 20t-41.5 6.5t-66 0.5h-63v153q83 0 159.5 -1t165.5 -1h118.5t136.5 2q0 -13 -0.5 -32.5t-0.5 -40t-0.5 -40t-0.5 -32.5q-38 -5 -63 -10t-39 -12.5t-20 -19.5t-6 -31q0 -12 -2.5 -51t-6 -89t-7.5 -103t-7 -94q-112 -73 -234 -100.5t-241 -27.5 q-138 0 -247.5 26t-193 72.5t-142.5 110.5t-96.5 140t-54.5 160.5t-17 172.5z" />
<glyph unicode="H" horiz-adv-x="1612" d="M75 0v178h31q40 0 62 8.5t32.5 23.5t12 35.5t1.5 44.5v759q0 20 -2.5 35.5t-13.5 25.5t-32.5 15t-59.5 5h-31v178h52.5t84 -0.5t94 -1t82.5 -0.5h56t71.5 0.5t80.5 1t83 0.5v-178h-35q-39 0 -59.5 -7t-30.5 -19.5t-11.5 -30.5t-1.5 -39v-279h528v297q0 23 -4.5 38t-16 24 t-31.5 12.5t-51 3.5h-35v178q97 -2 179 -2h159h48.5t65.5 0.5t76 1t78 0.5v-178h-32q-39 0 -61 -5.5t-32.5 -17t-13 -28t-2.5 -37.5v-754q0 -29 1 -49.5t10.5 -34t32 -20t65.5 -6.5h32v-178q-36 0 -69.5 0.5t-68.5 0.5t-74.5 0.5t-87.5 0.5q-90 0 -163.5 -1t-142.5 -1v178 h35q36 0 56.5 4t31 15.5t13 31t2.5 49.5v305h-528v-324q0 -30 4.5 -46.5t16.5 -24t32 -9t50 -1.5h35v-178q-37 0 -71.5 0.5t-71 0.5t-77.5 0.5t-91 0.5q-47 0 -85.5 -0.5t-73.5 -0.5t-67.5 -0.5t-66.5 -0.5z" />
<glyph unicode="I" horiz-adv-x="761" d="M75 0v178h40q39 0 60 7t31 21t11.5 35t1.5 49v725q0 29 -2 50.5t-12 36t-31 21.5t-59 7h-40v178q45 -1 82 -1.5t69 -0.5h61.5h58.5h106.5h86h76t76.5 2v-178h-42q-36 0 -56.5 -6.5t-31 -19t-13 -30t-2.5 -39.5v-766q0 -27 2 -44.5t12 -28t30.5 -14.5t58.5 -4h42v-178 q-37 0 -72 0.5t-71.5 0.5t-78 0.5t-90.5 0.5q-92 0 -162.5 -1t-141.5 -1z" />
<glyph unicode="J" horiz-adv-x="864" d="M18 95q7 0 20 -1t27.5 -2t27.5 -2t19 -1q14 -60 33 -83t51 -23q49 3 77 32t42.5 76t18 107.5t3.5 125.5v700q0 22 -1.5 41t-9.5 33.5t-25 23t-48 8.5h-73v178h41q41 0 79 -0.5l76 -1t77.5 -0.5h84.5h49.5h67.5t77.5 0.5t80.5 1.5v-178h-49q-36 0 -55.5 -8t-29.5 -24 t-12 -38.5t-2 -50.5v-740q0 -143 -21 -240t-71.5 -156t-134 -84t-207.5 -25q-60 0 -110 7.5t-103 18.5v305z" />
<glyph unicode="K" horiz-adv-x="1510" d="M59 0v178h45q36 0 56 8t29 22t11 32.5t2 40.5v741q0 23 -2 42.5t-11.5 34t-29.5 23t-55 8.5h-45v178q45 0 82.5 -1t70.5 -1.5t62.5 -0.5h59.5t74 0.5t92 0.5t96.5 1t88.5 1v-178h-57q-35 0 -55 -9.5t-30 -25t-12 -35.5t-2 -40v-338l450 409q23 20 23 29q0 8 -13 9t-36 1 h-104v177q8 0 31.5 -0.5t55 -0.5h66.5h66.5h55.5h32l294 1v-177h-13.5h-17.5t-17 -0.5t-12 -0.5q-41 -1 -71.5 -5.5t-58.5 -15t-55.5 -29.5t-62.5 -50l-341 -301l449 -467q29 -30 69 -53.5t100 -28.5q3 0 10.5 -0.5t16.5 -0.5h17h11v-178h-32h-56t-68.5 0.5t-69.5 0.5h-59.5 h-37.5h-36.5h-59t-70 -0.5t-68.5 -0.5h-55.5h-30.5v178h80q37 0 37 9q0 8 -22 33l-336 367l-61 -49v-258q0 -24 2 -42.5t11 -32t29 -20.5t56 -7h46v-178h-30.5h-53t-65 0.5t-66 0.5h-56.5h-36h-35.5h-56t-66 -0.5t-65.5 -0.5h-53.5h-30.5z" />
<glyph unicode="L" horiz-adv-x="1190" d="M66 0v178h47q36 0 56.5 9t30 24t11.5 36t2 45v697v39q0 20 -3 38.5t-13 32.5t-30 22.5t-54 8.5h-47v178q7 0 35.5 -0.5t64.5 -1t72.5 -1t60.5 -0.5h94t94 0.5t100 0.5t112 2v-178h-65q-34 0 -53 -10t-28.5 -26t-11.5 -36.5t-2 -41.5v-414q0 -179 1 -405h323q38 0 59.5 16 t32 47.5t13.5 77.5t3 106h183v-444h-1088z" />
<glyph unicode="M" horiz-adv-x="1940" d="M71 0v178h49q36 0 55 7.5t27 21.5t9.5 34t2.5 46l1 752q0 24 -3.5 41t-13 28.5t-27.5 16.5t-47 5h-47v178q14 0 49.5 -0.5t78.5 -1t87 -0.5h75h63.5h77t81.5 1t79 1l152 -458q28 -86 55.5 -168t48.5 -146.5t34 -103.5l14 -40q9 34 32 104.5t53.5 160t64.5 188.5t65 189.5 t55.5 163.5t35.5 110q36 0 80.5 -0.5t90 -1t87.5 -0.5h72h63.5h79.5t72 1t43 1v-178h-51q-31 0 -48.5 -4.5t-26 -13t-10.5 -21.5t-2 -30v-398q0 -173 1 -393q0 -27 3 -45t12.5 -28.5t27.5 -14.5t48 -4h49v-178q-38 0 -74 0.5t-74.5 0.5t-81 0.5t-91.5 0.5q-43 0 -76.5 -0.5 t-63 -0.5t-57 -0.5t-57.5 -0.5v178h41q34 0 53.5 8.5t30 25t13.5 40.5t3 54v843l-57 -157l-354 -992h-184q-9 24 -27 74t-41.5 116.5t-50.5 145t-55 159t-55.5 158.5t-51 144.5t-41 117t-26.5 74.5l-28 78q-5 14 -10.5 28.5t-9.5 25.5q-5 13 -9 25v-879q0 -30 3.5 -47.5 t13 -26.5t27 -12t46.5 -3h48v-178q-29 0 -56 0.5t-56 0.5t-61.5 0.5t-71.5 0.5q-42 0 -76 -0.5t-64 -0.5t-58.5 -0.5t-58.5 -0.5z" />
<glyph unicode="N" horiz-adv-x="1543" d="M52 0v178h52q37 0 56.5 7t28.5 21t10 35.5t1 50.5v737q0 30 -2 49.5t-11.5 31t-28.5 16t-52 4.5h-52v178h265h24h42.5h52h52h43h24.5l571 -963h2l-1 701q0 28 -4 44.5t-15 25.5t-30.5 11.5t-50.5 2.5h-46v178q75 0 134.5 -1t108.5 -1h22.5h35.5t43 0.5t46 0.5q54 0 118 1 v-178h-51q-34 0 -52 -7.5t-26.5 -21t-10 -33t-1.5 -42.5v-48v-119.5v-166.5v-190v-516h-329l-601 1002h-2l1 -722q0 -31 3.5 -48.5t15 -26.5t31.5 -11t53 -2h49v-178q-57 0 -115.5 1t-135.5 1q-43 0 -78 -0.5t-66.5 -0.5t-61.5 -0.5t-62 -0.5z" />
<glyph unicode="O" horiz-adv-x="1575" d="M99 655q0 143 45 266.5t132.5 215t216 144t295.5 52.5q165 0 292.5 -52t215 -143.5t133 -215.5t45.5 -267t-45.5 -267t-132.5 -216t-214 -145t-291 -53q-166 0 -295 52t-217 143.5t-134 216t-46 269.5zM462 657q0 -117 20 -208t60 -153.5t101 -95t144 -32.5 q84 0 145.5 33.5t101 96.5t59 153.5t19.5 204.5q0 234 -80 358.5t-245 124.5q-86 0 -147.5 -33t-101 -95.5t-58 -152t-18.5 -201.5z" />
<glyph unicode="P" horiz-adv-x="1353" d="M69 0v178h50q37 0 58.5 4t31.5 16.5t12.5 35t2.5 59.5v728q0 24 -2 43.5t-12 34t-30 23t-56 8.5h-55v178h685q147 0 250 -28.5t168 -79.5t95 -122.5t30 -157.5q0 -85 -27 -155t-90.5 -120.5t-168 -78t-260.5 -27.5h-199v-266q0 -32 4.5 -51t15.5 -28.5t31 -12.5t52 -3h50 v-178q-35 0 -68 0.5t-68 0.5t-74.5 0.5t-85.5 0.5q-51 0 -95.5 -0.5t-86 -0.5t-80.5 -0.5t-78 -0.5zM552 715h162q125 0 188 51t63 156q0 51 -15 89.5t-47 64t-83 38.5t-124 13h-144v-412z" />
<glyph unicode="Q" horiz-adv-x="1575" d="M99 655q0 144 46 267.5t134 215t216.5 143.5t293.5 52q163 0 290.5 -52t215 -143.5t133.5 -215t46 -266.5q0 -127 -38.5 -243.5t-115 -208t-189.5 -151t-261 -71.5q1 0 2 -1t2 -1q58 -14 105.5 -32.5t102 -35t125 -28t174.5 -11.5l-67 -221q-11 -1 -21 -1h-20 q-58 0 -111.5 13.5t-104 33.5t-98 43.5t-94 43.5t-93 33.5t-94.5 13.5q-31 0 -59.5 -9.5t-46.5 -29.5l-71 127q29 35 63.5 49t81.5 18q-127 18 -228 75t-172 144.5t-109 201.5t-38 247zM462 658q0 -116 19.5 -207t59.5 -154t101.5 -96t144.5 -33q84 0 145 33.5t101 97 t59.5 154t19.5 204.5t-20 204t-60.5 151.5t-101.5 94t-143 32.5q-86 0 -147.5 -34t-101 -97t-58 -152t-18.5 -198z" />
<glyph unicode="R" horiz-adv-x="1474" d="M70 0v178h32q43 0 66.5 6.5t34 19.5t12 32t1.5 44v747q0 28 -2.5 47.5t-14 32t-35.5 18t-67 5.5h-27v178h639q73 0 144.5 -5t136 -19.5t120 -39.5t96 -65t63.5 -97t23 -134q0 -54 -18 -102.5t-52.5 -87.5t-84 -67t-112.5 -42q30 -14 57.5 -35t50.5 -54t40.5 -81 t27.5 -117q9 -50 17.5 -86.5t20 -60.5t28 -35.5t40.5 -11.5q35 0 53 20t18 68l116 14v-5.5t-0.5 -10t-0.5 -10v-5.5q-2 -70 -21.5 -120t-55.5 -82.5t-86.5 -47.5t-114.5 -15q-77 0 -134 22t-98 66t-68 110.5t-44 156.5q-15 80 -35.5 133t-45.5 88q-27 22 -65 29.5t-94 7.5 h-87l-1 -337q0 -23 4.5 -37.5t15.5 -22t30 -10t49 -2.5h44v-178h-73.5t-74.5 0.5t-80.5 1t-91.5 0.5q-48 0 -87.5 -0.5t-74.5 -0.5t-67.5 -0.5t-66.5 -0.5zM543 732h155q67 0 116.5 9.5t81.5 32.5t48 60t16 93q0 59 -19 97.5t-55.5 61t-91 31t-126.5 8.5h-125v-393z" />
<glyph unicode="S" horiz-adv-x="1199" d="M98 0v406h192q6 -26 12 -48q10 -51 29.5 -90.5t52.5 -66.5t81 -41t115 -14q51 0 92.5 12t71.5 34.5t46 56t16 75.5q0 57 -34.5 95.5t-91 67.5t-127.5 53.5t-144 54.5q-158 65 -234.5 153t-76.5 213q0 79 29.5 147t86 118t137.5 78.5t185 28.5q90 0 177.5 -22t164.5 -83 q0 14 -0.5 28t-0.5 26v27h26.5t48 -0.5t58 -0.5h54.5v-365h-192q-4 13 -6.5 25t-5.5 24q-17 89 -76 136.5t-179 47.5q-49 0 -88 -12t-66.5 -34t-42.5 -52t-15 -67q0 -57 35 -94t95 -66.5t139 -57t167 -65.5q58 -24 109.5 -56.5t90.5 -76t61.5 -101t22.5 -131.5 q0 -79 -31 -149.5t-88.5 -124t-140.5 -84.5t-187 -31q-50 0 -99.5 8.5t-95 24.5t-85 39t-69.5 52v-98h-219z" />
<glyph unicode="T" horiz-adv-x="1324" d="M57 866v442q97 -1 185 -1q37 0 76.5 -0.5t77 -0.5h70.5h57h378q43 0 90.5 0.5t95 0.5t93.5 0.5t87 0.5v-442h-158v135q0 35 -4 56.5t-20 33.5t-47.5 16t-85.5 4h-125v-856q0 -11 2.5 -24.5t12 -25t29 -19.5t52.5 -8h56v-178h-71.5t-71 0.5t-77.5 1t-92 0.5 q-35 0 -75.5 -0.5t-83 -0.5t-83.5 -0.5t-77 -0.5v178h56q37 0 56.5 10t28.5 26t10 36.5t1 40.5v820h-160q-41 0 -66 -3.5t-38.5 -12.5t-18 -24t-4.5 -38v-32.5v-46t0.5 -49t0.5 -39.5h-157z" />
<glyph unicode="U" horiz-adv-x="1411" d="M47 1130v178q15 0 47.5 -0.5t70.5 -1t76.5 -1t66.5 -0.5h76.5t76.5 0.5t81.5 1t90.5 1.5v-178h-33q-36 0 -55.5 -9.5t-29 -25t-11.5 -36t-2 -41.5v-521q0 -80 12.5 -141.5t42.5 -103t81 -63t128 -21.5q70 0 116 20t73 60t38 99t11 137v542q0 19 -2 37.5t-12 33.5 t-30.5 24t-56.5 9h-36v178q13 -1 46 -1.5t73 -0.5h80h69h42t57.5 0.5t66 1t66.5 0.5v-178h-47q-35 0 -52.5 -11.5t-25 -28.5t-7.5 -36.5v-35.5v-518q0 -129 -29 -227.5t-91.5 -165t-162 -100t-240.5 -33.5q-142 0 -243.5 31.5t-166 96t-94.5 162t-30 229.5v560q0 11 -2 24.5 t-11 25t-26.5 19.5t-48.5 8h-43z" />
<glyph unicode="V" horiz-adv-x="1404" d="M3 1130v178q8 0 32.5 -0.5t55 -1t61.5 -1t53 -0.5h36h51.5t61.5 0.5t65 0.5q76 1 163 2v-178q-29 -1 -54 -2t-43.5 -5.5t-29 -14t-10.5 -27.5q0 -7 1.5 -16.5t6.5 -21.5q3 -10 16.5 -46.5t34 -90.5t45.5 -120.5t51 -135.5t51.5 -135.5t46 -120.5t34 -90.5t17.5 -45.5 l279 782q5 16 8.5 28t3.5 20q0 25 -23.5 32t-73.5 9h-20.5t-20.5 1v178q58 -1 109 -1q21 0 43 -0.5t41.5 -0.5h35.5h25h116t129 2v-178q-42 0 -68.5 -12.5t-47 -41.5t-39 -76.5t-44.5 -117.5l-338 -897h-301l-404 1006q-14 34 -25.5 60t-28 43.5t-40.5 26.5t-62 9z" />
<glyph unicode="W" horiz-adv-x="2021" d="M6 1130v178q64 -1 121 -1q24 0 49.5 -0.5t48.5 -0.5h42.5h32.5q57 0 122 0.5t152 1.5v-178q-76 -2 -111 -10q-18 -15 -18 -46q0 -13 2 -29t7 -34q9 -32 24.5 -93t34 -136t39 -157.5t39 -157.5t34 -136t24.5 -93l262 992h266l268 -993l196 791q4 17 7.5 31t5.5 27 q-5 20 -26 30t-67 12q-5 1 -19.5 1t-19.5 1v178q79 -1 138 -1.5t110 -0.5h59.5t73.5 0.5t68.5 1t44.5 0.5v-178q-36 -1 -60.5 -6.5t-42.5 -21.5t-32.5 -47t-30.5 -83q-6 -16 -17.5 -55t-28 -94.5t-36 -123.5t-41 -143t-44 -152.5t-44 -152.5t-41.5 -143t-37 -123h-308 l-240 951l-242 -951h-317l-290 971q-18 61 -28 96t-23.5 52t-37 21.5t-69.5 4.5z" />
<glyph unicode="X" horiz-adv-x="1655" d="M33 0v178q39 0 66.5 3t54 14t55 34t68.5 62l341 355l-333 361q-42 45 -69 69.5t-51 36t-51.5 14t-70.5 3.5v178q63 -1 104.5 -1h75.5h69h85q28 -1 72.5 -1h93.5t97 1t84 1v-178h-43q-40 0 -62 -4t-22 -22q0 -8 17.5 -29.5t39.5 -44.5l194 -212l12 14q11 14 29.5 35.5 t41 47.5t43.5 51.5t38.5 47t25.5 33.5q20 25 34 39t14 18q0 17 -33.5 20.5t-98.5 5.5v178q40 0 83.5 -1t85 -1.5t78.5 -0.5t64 1h153t167 2l-2 -162q-42 0 -74 -2t-57 -8t-44.5 -18t-35.5 -33q-2 -1 -18 -19t-42 -46.5t-58 -64t-66 -73t-66 -72.5t-57 -63t-40 -45l-15 -16 l349 -373q31 -35 56 -60.5t53 -42.5t63 -25t86 -8v-177q-82 1 -162.5 2t-173.5 1q-104 0 -195.5 -1t-184.5 -2q0 45 -0.5 88.5t-0.5 88.5q62 0 100.5 6t38.5 29q0 5 -7 15.5t-17.5 24t-23.5 28.5l-26 30l-173 207l-184 -211q-37 -40 -52 -63t-15 -34q0 -12 10.5 -18.5 t29.5 -9.5t45 -3t57 -1v-177q-114 0 -208 1t-157 1h-51.5t-57.5 -0.5t-74 -1t-102 -0.5z" />
<glyph unicode="Y" horiz-adv-x="1320" d="M16 1308q7 0 29 -0.5t50 -1l56 -1t46 -0.5q46 0 89 0.5t90.5 1t101.5 1t121 0.5v-178h-31q-49 0 -70 -7.5t-21 -27.5q3 -6 7.5 -15.5t10 -20.5t10.5 -22t10 -18q6 -12 20.5 -37.5t33 -57.5t39 -67t39 -67t32.5 -57.5t20 -37.5l197 327q15 25 25 44t12 33q-4 16 -24 22 t-62 8q-4 0 -15 0.5t-16 0.5v178q59 -1 112 -1q22 0 45.5 -0.5t44.5 -0.5h38h28h99.5t119.5 2v-178q-33 0 -53 -3.5t-35.5 -13t-29.5 -28t-34 -48.5q-25 -35 -55 -80t-62 -93.5t-64 -98t-60.5 -94t-52 -81t-38.5 -58.5v-262q0 -23 2 -40t12 -28.5t29.5 -17.5t55.5 -6h49 v-178h-72.5t-73.5 0.5t-80 1t-92 0.5q-30 0 -72.5 -0.5t-86 -0.5t-81.5 -0.5t-57 -0.5v178h48q39 0 59 9.5t29 23.5t9.5 29.5t0.5 27.5v266q-15 22 -39.5 60.5t-54 85t-62 97.5t-62 97.5t-54 85t-38.5 61.5q-24 37 -38.5 58t-31 32.5t-39.5 14.5t-62 4q0 44 -0.5 88.5 t-0.5 89.5z" />
<glyph unicode="Z" horiz-adv-x="1267" d="M52 0v204l757 918h-380q-56 0 -89.5 -1t-51 -9t-23 -27t-5.5 -56v-106h-185v383h1118v-195l-766 -928h484q38 0 61 11t35 36.5t16 67.5t4 103h187v-401h-1162z" />
<glyph unicode="[" horiz-adv-x="807" d="M161 -298v1606h575v-216h-276v-1174h274v-216h-573z" />
<glyph unicode="\" horiz-adv-x="503" d="M-26 1322h181l396 -1418h-180z" />
<glyph unicode="]" horiz-adv-x="807" d="M70 -82h277v1174h-276v216h574v-1606h-575v216z" />
<glyph unicode="^" horiz-adv-x="1721" d="M291 798l472 629h202l463 -629l-179 -11l-390 442l-392 -442z" />
<glyph unicode="_" horiz-adv-x="1024" d="M-6 -241h1036v-125h-1036v125z" />
<glyph unicode="`" horiz-adv-x="853" d="M97 1352q0 4 15 13t38.5 18.5t53 17t59.5 7.5q34 0 64.5 -10t47.5 -33l236 -317h-139q-10 9 -41.5 33t-73 54.5t-87 65t-84 65.5t-63.5 54t-26 32z" />
<glyph unicode="a" horiz-adv-x="1203" d="M63 259q0 67 29.5 121t85 91.5t134.5 58t179 20.5q65 0 130 -7.5t123 -22.5v115q0 76 -52.5 121t-162.5 45q-182 0 -217 -145l-165 15l6 200q15 7 49 18t86 21.5t120 18t151 7.5q130 0 223 -18.5t152.5 -58.5t87.5 -103.5t28 -154.5v-329q0 -41 2.5 -64t11 -33.5 t23.5 -12.5t41 -2h48v-160h-35t-59 0.5t-61.5 0.5h-41.5q-28 0 -51 -0.5t-44.5 -1t-44.5 -1t-51 -1.5l-30 130q-22 -35 -52 -62.5t-72 -47t-97 -30t-126 -10.5q-86 0 -151.5 22.5t-109 60.5t-65.5 89.5t-22 109.5zM357 282q0 -37 13 -59.5t35.5 -43t54 -31.5t67.5 -11 q49 0 89 13t68.5 38.5t44 55.5t15.5 77v103q-42 12 -83 17t-83 5q-105 0 -163 -43t-58 -121z" />
<glyph unicode="b" horiz-adv-x="1343" d="M43 1148v160h45h70q60 2 117 2q54 1 104.5 1.5t100.5 2.5v-506q57 60 136 92t175 32q103 0 188.5 -32.5t147 -94.5t95.5 -151t34 -201q0 -102 -31.5 -189t-91 -150.5t-143.5 -100t-189 -36.5q-115 0 -195 38t-137 113l-1 -131q-62 2 -120.5 2.5t-117.5 1.5 q-17 0 -48 -0.5t-61 -0.5h-75v159h55q27 1 41.5 12t21.5 25.5t8.5 28.5t1.5 20v825q0 26 -8 41.5t-24 23.5t-41 10.5t-58 2.5zM470 454q0 -142 62 -221.5t178 -79.5q112 0 173.5 78.5t61.5 225.5q0 72 -16.5 129t-47 96t-74.5 60t-99 21q-57 0 -101.5 -21.5t-75 -61.5 t-46 -97.5t-15.5 -128.5z" />
<glyph unicode="c" horiz-adv-x="1129" d="M81 448q0 105 37.5 193t101.5 151.5t149.5 99t182.5 35.5q75 0 146.5 -20.5t128.5 -71.5l12 75q18 -1 41.5 -2t48 -2t48.5 -2.5t44 -3.5v-339h-174q-14 111 -69.5 163.5t-144.5 52.5q-57 0 -101.5 -23.5t-75 -66.5t-46 -103.5t-15.5 -133.5q0 -75 16.5 -129.5t48 -96.5 t76.5 -64.5t103 -22.5q86 0 137 49t66 129l213 -27q-14 -76 -52 -135t-96.5 -96t-136 -58.5t-170.5 -21.5q-118 0 -214 34t-163.5 93t-104.5 147t-37 197z" />
<glyph unicode="d" horiz-adv-x="1346" d="M84 452q0 112 33.5 201t94.5 151t147.5 94.5t191.5 32.5q97 0 172.5 -31.5t133.5 -91.5l1 277q0 21 -7 33.5t-19.5 19t-31 8.5t-42.5 2q-11 1 -22.5 0.5t-23.5 -0.5v160q22 0 43 -1q31 -1 63 1q52 2 118 2q61 1 117 1.5t111 2.5v-1091q0 -28 17 -45.5t65 -19.5h49 l-2 -158q-40 0 -85 0.5t-87 0.5q-63 -1 -125.5 -1.5t-125.5 -2.5v23.5v36t-0.5 38.5t-0.5 32q-48 -68 -132 -109t-201 -41q-102 0 -185.5 34.5t-142.5 97t-91.5 150t-32.5 193.5zM395 455q0 -71 15.5 -127t45.5 -95t73.5 -59.5t99.5 -20.5q59 0 104 21t75 60.5t45 95.5 t15 125q0 70 -16.5 127t-47.5 97t-75 62t-99 22q-56 0 -99.5 -21.5t-73.5 -61t-46 -96.5t-16 -129z" />
<glyph unicode="e" horiz-adv-x="1198" d="M79 451q0 111 37.5 201t106.5 153t166 97t216 34q115 0 210 -32.5t163 -97t106 -160.5t38 -223l-54 -8h-680q1 -143 70 -210.5t189 -67.5q85 0 143.5 39t83.5 94l228 -18q-40 -137 -164.5 -206t-313.5 -69q-138 0 -240 36t-170 97t-101.5 149t-33.5 192zM391 546h445v-1 v7q0 3 -0.5 6.5t-0.5 7.5q-9 106 -66 164.5t-150 58.5q-103 0 -161.5 -65t-66.5 -178z" />
<glyph unicode="f" horiz-adv-x="745" d="M53 748v160h142v63q0 186 98.5 276t289.5 90q33 0 69.5 -2t73.5 -5.5t73 -9t69 -11.5l-18 -243h-108q-5 48 -33.5 78.5t-78.5 30.5q-44 0 -69.5 -15.5t-38.5 -43.5t-17 -67.5t-4 -86.5v-54h213v-160h-213v-509q0 -29 11 -44.5t31.5 -23t50.5 -8.5t69 -1v-162 q-59 0 -120 1q-52 0 -113 0.5t-117 0.5q-40 0 -84 -0.5t-81 -0.5q-43 -1 -85 -1v77v29t0.5 26t0.5 20v10q40 0 65.5 2t40 10t20 24t5.5 44v506h-142z" />
<glyph unicode="g" horiz-adv-x="1327" d="M79 458q0 108 33.5 195t95 148.5t147 95t189.5 33.5q118 0 201.5 -41.5t137.5 -110.5v133q61 -2 122 -3.5t125 -1.5q53 0 91.5 0.5t77.5 1.5v-161q-16 0 -25 0.5t-19 -0.5q-27 0 -44 -5t-26.5 -17t-13 -32.5t-3.5 -51.5v-572q0 -143 -36 -239t-107 -153.5t-176 -81.5 t-243 -24q-59 0 -119 5.5t-117.5 16t-112 26.5t-101.5 36l39 246q15 -5 45.5 -7t61.5 -4q36 -2 77 -3q6 -45 23.5 -75t45.5 -47.5t66.5 -24.5t88.5 -7q57 0 105 15.5t82.5 51t54 91.5t20.5 137v100q-62 -60 -144.5 -88.5t-181.5 -28.5q-105 0 -190 31t-145 88.5t-92.5 140.5 t-32.5 187zM391 453q0 -67 16.5 -121t48 -92t76.5 -58.5t101 -20.5t100.5 20.5t75.5 59.5t47.5 94.5t16.5 126.5q0 66 -16.5 120t-47.5 93t-76.5 60t-102.5 21q-55 0 -99.5 -21.5t-75.5 -61t-47.5 -95.5t-16.5 -125z" />
<glyph unicode="h" horiz-adv-x="1336" d="M37 0v162q46 0 73 2t41 9.5t18 23t4 42.5v853q0 19 -7 30.5t-19.5 17.5t-29.5 8t-38 2h-36v158h53.5h55.5q56 1 111 1q52 0 105 1t110 4v-534q70 77 160 113t200 36q91 0 154.5 -26.5t103 -81.5t57.5 -140.5t18 -203.5v-227q0 -30 4 -47.5t14.5 -26.5t27.5 -11.5t43 -2.5 h35v-162h-62t-62 0.5t-67 1t-77 0.5q-43 0 -80 -0.5t-71 -0.5t-66 -0.5t-65 -0.5v162q39 0 62.5 6.5t36.5 18.5t17 29.5t4 38.5v260q0 51 -6 95.5t-23 77t-48 51t-80 18.5q-55 0 -95 -16t-67.5 -43.5t-43.5 -64t-23 -77.5v-334q0 -23 8 -35t24.5 -17.5t42.5 -6.5t63 -1v-162 h-76.5t-75 0.5t-80.5 1t-93 0.5q-39 0 -72.5 -0.5t-64 -0.5t-59.5 -0.5t-59 -0.5z" />
<glyph unicode="i" horiz-adv-x="655" d="M56 0v162q42 0 66.5 2.5t37.5 12t17 27.5t4 50v438q0 21 -7 32t-22 16.5t-37.5 6.5t-53.5 1q0 41 0.5 80t0.5 80q42 0 80 -1t74 0q65 0 132.5 1t137.5 4v-658q0 -31 4.5 -49t17 -27.5t35.5 -12.5t60 -3v-162q-34 0 -75.5 0.5t-84 0.5t-82 0.5t-69.5 0.5q-36 0 -67 -0.5 t-59 -0.5t-55 -0.5t-55 -0.5zM143 1213q0 55 47 88.5t125 33.5q37 0 68.5 -8.5t55 -24t36.5 -38.5t13 -51q0 -56 -46.5 -90t-126.5 -34q-78 0 -125 31t-47 93z" />
<glyph unicode="j" horiz-adv-x="645" d="M-83 -161q4 0 13.5 -0.5t21 -0.5t24 0.5t21.5 0.5q8 -49 25 -68t46 -19q40 0 64.5 16.5t37 54t16.5 98.5t4 149v597q0 25 -5 40.5t-18.5 24.5t-36.5 12.5t-59 3.5v160q60 -1 110.5 -1h101.5q52 0 105 1t108 4v-823q0 -123 -12.5 -215.5t-49 -155t-104 -95.5t-178.5 -36 q-62 0 -124 6t-111 18v228zM148 1213q0 29 13 51.5t36 38.5t54 24t68 8q78 0 125.5 -32t47.5 -90q0 -59 -47.5 -91.5t-125.5 -32.5q-80 0 -125.5 31t-45.5 93z" />
<glyph unicode="k" horiz-adv-x="1268" d="M37 0v162q42 1 68.5 5t41.5 13t20.5 24t5.5 39v840q0 25 -9.5 38.5t-27 19.5t-41.5 6.5t-53 0.5v160h15.5h27.5t35 0.5t39 0.5q46 1 101 1q58 0 108.5 1t108.5 3v-833l218 170q24 18 46.5 37.5t40 35.5t28 27t10.5 13q0 3 -13 4t-30.5 2t-35.5 1h-27l2 137 q66 -2 114.5 -2h93.5h62.5h66t73 0.5t83.5 1.5v-148h-28q-11 0 -21.5 0.5t-14.5 0.5q-24 0 -41 -3t-34 -11t-37 -21.5t-48 -35.5l-210 -162l281 -292q37 -44 69 -58t74 -16h55v-162q-33 0 -75.5 0.5t-83 0.5t-73 0.5t-45.5 0.5q-83 0 -147.5 -1t-132.5 -1v162h16.5t18 1 t15.5 1.5t10 0.5q26 3 26 11q0 6 -7.5 14t-18.5 18l-193 204l-86 -61v-120q0 -20 3 -33t15.5 -20.5t37 -11t66.5 -4.5v-162h-65.5t-74 0.5t-78 1t-76.5 0.5q-26 0 -60 -0.5t-71 -0.5t-73 -0.5t-65 -0.5z" />
<glyph unicode="l" horiz-adv-x="650" d="M47 0v162q47 0 72.5 6t37.5 20.5t14 38.5t2 60v791q0 24 -7.5 38t-23 21t-38 9t-52.5 2v160h49t69 0.5t66 1t40 0.5q50 0 99 1t103 3v-1049q0 -32 5 -52t18.5 -31t37 -15.5t60.5 -4.5v-162h-67t-67.5 0.5t-72.5 1t-81 0.5q-80 0 -141 -1t-123 -1z" />
<glyph unicode="m" horiz-adv-x="2007" d="M51 0v162q43 0 68.5 3t39 11.5t17.5 24t4 40.5v450q0 39 -31 48t-93 9v160q29 0 55.5 -1t54.5 -1q78 0 153 1.5t156 3.5v-158q26 36 63 67.5t84.5 55.5t104 38t121.5 14q106 0 180 -45t112 -136q77 86 172 133.5t204 47.5q91 0 151.5 -28.5t97.5 -83t52.5 -135 t15.5 -185.5v-274q0 -22 6.5 -34t21 -17.5t38 -7t57.5 -1.5v-162q-64 0 -127 1t-142 1q-78 0 -144.5 -1t-135.5 -1v162q35 0 58.5 4.5t37 14.5t19 28t5.5 45v276q0 102 -33 155t-120 53q-69 0 -115.5 -27.5t-78.5 -70.5q-11 -31 -15.5 -68t-4.5 -81v-265q0 -21 6 -33.5 t19.5 -19.5t36.5 -9t57 -2v-162h-64.5t-64.5 0.5t-70 1t-82 0.5q-39 0 -73 -0.5t-64.5 -0.5t-60 -0.5t-59.5 -0.5v162q66 1 89.5 22t23.5 63v261q0 58 -7.5 101t-24.5 71.5t-46.5 43t-72.5 14.5q-62 0 -108 -21.5t-85 -72.5q-11 -17 -18 -60t-7 -109v-231q0 -30 7 -46.5 t23 -24t42 -9.5t64 -2v-162h-71t-70 0.5t-76 1t-88 0.5q-41 0 -75.5 -0.5t-66 -0.5t-62 -0.5t-61.5 -0.5z" />
<glyph unicode="n" horiz-adv-x="1341" d="M41 118v29v15q43 0 70 2t42 10t20.5 24t5.5 45v454q0 19 -8 29.5t-24.5 15t-41.5 5.5t-58 1v160q43 0 82 -1t75 0q69 0 134 1t137 4v-150q28 33 65 62.5t82 52t98 36t113 15.5q85 0 149.5 -21t108 -66t65.5 -116t22 -170v-333q0 -25 8 -37t23.5 -17t38.5 -5.5t53 -0.5 v-162h-60t-60 0.5t-66 1t-77 0.5q-78 0 -147.5 -1t-138.5 -1v162q45 0 69.5 2.5t35.5 10.5t13 23t2 40v274q0 55 -8 97t-27 70t-51 42.5t-79 14.5q-40 0 -72.5 -8.5t-58 -22t-44.5 -31.5t-32 -36q-11 -32 -13.5 -70.5t-2.5 -83.5v-246q0 -29 8 -44t25 -22t44 -8.5t65 -1.5 v-162h-71t-70.5 0.5t-77 1t-89.5 0.5q-83 0 -147.5 -1t-128.5 -1v14.5v29.5t-0.5 37t-0.5 37z" />
<glyph unicode="o" horiz-adv-x="1256" d="M78 453q0 114 42 204t116 152t174.5 94.5t217.5 32.5q111 0 211 -31t175 -92t119 -151.5t44 -208.5q0 -115 -43 -205t-117 -148t-174 -90.5t-215 -32.5q-116 0 -216 32t-174.5 90t-117 148t-42.5 206zM391 454q0 -150 61 -233.5t174 -83.5q56 0 100 22t75 63t47 101 t16 135q0 73 -16 131t-46 98.5t-74 62t-99 21.5q-114 0 -176 -84t-62 -233z" />
<glyph unicode="p" horiz-adv-x="1342" d="M41 -253q43 1 70 4.5t43 10.5q9 19 12.5 38t3.5 46v835q0 25 -7 39t-21.5 20t-37.5 7t-56 1v160q42 0 82 -0.5t77 -0.5q62 0 126 1t131 4l1 -134q19 30 49.5 57.5t72.5 48.5t94 33.5t114 12.5q102 0 187 -34t146 -96t94.5 -149t33.5 -193q0 -111 -33.5 -200.5t-95 -151.5 t-147.5 -95.5t-191 -33.5q-97 0 -176.5 30.5t-136.5 91.5l-1 -282q0 -26 6 -40.5t20.5 -21t37.5 -7.5t57 -1h24v-161q-28 0 -67 0.5t-80.5 0.5h-82h-72.5h-68h-76t-73 -0.5t-60 -0.5v161zM466 455q0 -144 62 -226t177 -82q54 0 98.5 19.5t76 58.5t49 97t17.5 135 q0 141 -63 219t-178 78q-114 0 -176.5 -79.5t-62.5 -219.5z" />
<glyph unicode="q" horiz-adv-x="1342" d="M87 458q0 106 33.5 193t94.5 149t145.5 96t186.5 34q59 0 109.5 -11.5t92 -31.5t73.5 -47.5t55 -60.5l1 133q56 -3 110.5 -4t108.5 -1q48 0 95.5 0.5t104.5 0.5v-160q-46 0 -71 -3t-37 -12t-14.5 -26.5t-2.5 -46.5v-820q0 -25 2.5 -39t11.5 -23q8 -23 34.5 -26.5 t80.5 -4.5v-161q-27 0 -65 0.5t-79 0.5h-81h-71h-69h-77t-75 -0.5t-62 -0.5v161h44q34 0 54 2.5t30.5 10.5t13.5 22.5t3 38.5l-1 278q-48 -52 -124 -87t-188 -35q-105 0 -191.5 33.5t-147.5 95.5t-94.5 151.5t-33.5 200.5zM397 454q0 -75 17.5 -132.5t49 -96.5t76 -59 t98.5 -20q56 0 100.5 21t75 60.5t46.5 96t16 126.5q0 142 -61.5 222.5t-177.5 80.5q-117 0 -178.5 -78t-61.5 -221z" />
<glyph unicode="r" horiz-adv-x="920" d="M44 0v162q42 0 66.5 2t35.5 10q20 5 26.5 21.5t6.5 54.5v441q0 22 -7.5 33.5t-23.5 16.5t-41 6t-60 1v160q17 0 176 -1q171 1 252 5v-192q38 103 122.5 156t208.5 53q23 0 46.5 -2t47.5 -6v-302q-9 1 -22.5 1h-22.5q-16 0 -36.5 -0.5t-34.5 -1.5q-11 42 -35.5 60 t-67.5 18q-38 0 -70 -15t-56.5 -42.5t-40 -67t-20.5 -87.5q-3 -10 -5 -45t-3 -76.5t-1 -80v-55.5q0 -26 7.5 -39t25.5 -19t47 -6.5t71 -0.5v-162q-40 0 -78.5 0.5t-78.5 0.5t-84.5 0.5t-96.5 0.5q-41 0 -74.5 -0.5t-63 -0.5t-58 -0.5t-58.5 -0.5z" />
<glyph unicode="s" horiz-adv-x="1032" d="M97 655q0 62 23.5 112.5t68.5 86t111 55t150 19.5q88 0 164 -22.5t120 -67.5q1 6 3.5 18.5t5.5 25.5q4 15 7 33q30 -3 58 -6q24 -2 49.5 -4t42.5 -4v-268h-158q-16 73 -75.5 116t-157.5 46q-40 0 -68.5 -8t-46.5 -21.5t-26.5 -31t-8.5 -36.5q0 -24 15 -41.5t43 -32.5 t68.5 -28.5t92.5 -28.5q88 -24 155.5 -50.5t114 -61.5t70.5 -81.5t24 -112.5q0 -75 -32 -128.5t-84.5 -88.5t-119.5 -51t-138 -16q-102 0 -170.5 25.5t-112.5 77.5l-4 -79q-47 0 -91.5 3t-90.5 3v284h181q4 -45 24.5 -79t52.5 -56.5t73 -33.5t87 -11q70 0 115 26t45 71 q0 30 -24.5 51.5t-65 39.5t-93 35t-108.5 37q-67 24 -120.5 49t-91 57t-57.5 75t-20 103z" />
<glyph unicode="t" horiz-adv-x="792" d="M7 748v149q11 0 39.5 2.5t58.5 4.5q34 3 75 6q0 3 2.5 19.5t6.5 39.5t8.5 50t8 51t6 42t2.5 24l250 47v-275h245v-160h-244v-406q0 -44 2.5 -76.5t11.5 -54t26 -32.5t45 -11q67 0 67 93l111 14v-32q-2 -74 -20.5 -123t-53.5 -81.5t-85 -47t-114 -14.5q-155 0 -225.5 82.5 t-70.5 228.5v460h-152z" />
<glyph unicode="u" horiz-adv-x="1336" d="M43 747v160h42.5t53.5 -0.5t48.5 -0.5h28.5q66 1 129.5 2t129.5 3v-522q0 -55 7 -98t24.5 -72t47.5 -44.5t76 -15.5q85 0 138.5 27t79.5 70q11 30 12.5 65.5t1.5 74.5v259q0 35 -5.5 53.5t-20.5 27t-41.5 10t-69.5 1.5v160q48 -1 95 -1h107q62 1 121 2t119 3v-688 q0 -20 5.5 -32.5t19.5 -19.5t38 -9t61 -2v-160q-47 0 -83.5 0.5t-74.5 0.5q-66 -1 -131 -1.5t-131 -2.5v140q-67 -80 -169 -118.5t-225 -38.5q-85 0 -144 27.5t-95.5 82.5t-52.5 140t-16 199v245q0 28 -5.5 43t-19.5 21.5t-38.5 7.5t-62.5 1z" />
<glyph unicode="v" horiz-adv-x="1220" d="M24 908q70 0 132 -1t112 -1q65 0 136 0.5t162 1.5l-1 -162h-17q-54 0 -81.5 -8t-35.5 -28q4 -14 9.5 -30.5t16.5 -35.5q6 -17 18 -46t27 -65t31.5 -77t33.5 -81q39 -94 84 -203q8 17 22.5 52.5t32.5 80t38 93.5t38 93.5t32.5 79.5t22.5 53q23 50 30 86q-7 20 -33 28 t-79 8h-15v162q42 -1 76.5 -1.5t66 -1t61.5 -0.5h63q43 0 89.5 1t97.5 2v-162q-42 -1 -63 -8t-33 -23q-16 -12 -27 -38.5t-32 -71.5l-285 -619h-283l-316 670q-17 38 -31 54t-32 20q-11 4 -26.5 3.5t-40.5 -2.5z" />
<glyph unicode="w" horiz-adv-x="1808" d="M29 746v162q12 0 41 -0.5t63.5 -1t68.5 -1t57 -0.5q51 0 122 1.5t140 1.5v-162q-11 0 -29 0.5t-23 0.5q-32 0 -40 -13.5t-5 -37.5q4 -37 15 -79.5t23 -81.5q13 -42 30 -93t33 -100t29.5 -90t20.5 -64q25 79 46 142q9 27 17.5 53.5t15.5 48t12 36t6 17.5l131 389h296 l113 -363q2 -7 7.5 -24.5t12.5 -42t15 -53.5t17 -58q19 -69 44 -150q44 136 78 244q15 46 29 90t25 79t18 57t8 24q6 22 13 42q-6 16 -28.5 20.5t-72.5 6.5v162q51 -1 101.5 -2t101.5 -1q50 0 98.5 1t99.5 2v-162q-36 -2 -55.5 -5.5t-31.5 -17t-22 -39.5t-28 -72l-226 -626 h-285l-220 678l-225 -678h-286l-243 661q-14 34 -24 53t-23.5 28.5t-32 12.5t-48.5 5z" />
<glyph unicode="x" horiz-adv-x="1213" d="M49 749v159q20 0 45.5 -0.5t52.5 -1t55 -1t52 -0.5h85t83.5 0.5t78 1.5t69.5 1v-159q-38 0 -54.5 -4t-16.5 -15q0 -10 12.5 -27t35.5 -42l81 -92l79 92q21 25 33 41t12 27q0 12 -19.5 16t-62.5 4v159q23 0 56.5 -0.5t70 -1t72 -0.5h63.5h57.5h51.5t50 1t52 1v-160h-41 q-23 0 -38.5 -3t-31 -13t-34 -29.5t-46.5 -52.5q-5 -6 -14.5 -17t-22 -25t-27 -30.5t-28.5 -32.5q-33 -38 -73 -83l15 -14q15 -15 38.5 -37.5t52 -50t55.5 -53t48.5 -47l31.5 -31.5q22 -24 38 -37t31.5 -20t33 -8.5t41.5 -1.5v-162q-20 0 -39.5 0.5t-48.5 0.5h-217h-61.5 h-68.5t-63.5 -0.5t-46.5 -0.5v162q70 0 70 26q0 20 -46 69l-83 86l-86 -118q-26 -35 -26 -47q0 -11 15.5 -13.5t47.5 -2.5l-1 -162q-28 0 -63.5 0.5t-72 0.5t-72 0.5t-64.5 0.5q-27 0 -50 -0.5t-46 -0.5t-47 -0.5t-53 -0.5v162h48q15 0 25.5 2.5t19.5 8.5t18 15.5t22 24.5 q17 20 51.5 59.5t69.5 80.5q40 48 87 101l-213 240q-18 20 -32 31t-28.5 16t-30.5 6.5t-38 1.5z" />
<glyph unicode="y" horiz-adv-x="1140" d="M-16 732v176q74 0 137.5 -1t113.5 -1q66 0 138 0.5t164 1.5v-162q-16 -2 -32.5 -1.5t-30.5 -0.5q-29 -3 -45 -12t-20 -31q3 -15 9 -32t14 -34.5t16.5 -34.5t14.5 -31l153 -350q12 29 31.5 76t43 103.5t48.5 119t48 121.5q16 39 21 66q-6 23 -31.5 32t-89.5 9v162 q67 -1 118 -1.5t103 -0.5q56 0 115 0.5t132 1.5v-28.5v-53t0.5 -53t1.5 -27.5q-42 -1 -66 -6t-39 -17t-26.5 -33.5t-29.5 -54.5q-12 -28 -39.5 -88t-63 -136t-74.5 -160.5t-74.5 -161t-63 -136.5t-39.5 -88q-37 -79 -70.5 -132t-71.5 -85.5t-85 -46.5t-110 -14h-49t-49 -1 v169h38.5t32.5 1q39 1 64.5 10t46 30.5t39.5 58t45 93.5q-87 188 -157 338q-30 64 -58.5 125.5t-51.5 111t-37.5 81t-16.5 35.5q-15 32 -26 51t-27 29t-43 13q-14 1 -35 1q-17 0 -37 -1z" />
<glyph unicode="z" horiz-adv-x="1090" d="M76 0v180l571 582h-285q-51 0 -80 -4.5t-44 -21t-19.5 -48t-5.5 -86.5h-123v304h911v-172l-572 -587h296q37 0 67 1.5t50.5 11t31.5 30t11 58.5v13.5v22.5t-0.5 22.5t-1.5 13.5h29t35 0.5t34.5 0.5h28.5v-321h-934z" />
<glyph unicode="{" horiz-adv-x="888" d="M110 479v150q70 4 115 21.5t71 52t36 87t10 127.5v165q0 114 23 185.5t71 112t121.5 55.5t174.5 15q1 0 7.5 -0.5t14.5 -1.5t14.5 -1.5t7.5 -0.5v-156q-59 -1 -97.5 -11t-62 -35.5t-34 -70.5t-12.5 -115q-3 -80 -5.5 -144.5t-9 -116.5t-19.5 -91.5t-37.5 -69t-63.5 -49 t-96 -31.5q65 -15 109 -43t71 -72.5t38.5 -108.5t11.5 -152q0 -116 5.5 -186.5t26.5 -109t62.5 -51.5t112.5 -14v-159q-1 0 -6 -0.5t-11 -0.5h-11h-6q-109 0 -185 15t-124 57t-69.5 116.5t-21.5 193.5v182q0 65 -12 112t-39.5 78t-72 47t-108.5 19z" />
<glyph unicode="|" horiz-adv-x="1115" d="M455 -403v1864h206v-1864h-206z" />
<glyph unicode="}" horiz-adv-x="888" d="M112 -181q63 1 101.5 11.5t61 40t32 83.5t14.5 142q4 101 7.5 178t23 132.5t64 91t132.5 55.5q-83 19 -126.5 53t-64.5 85t-26 121t-9 162q-5 100 -13 161t-29.5 95t-61 46t-106.5 14v159q1 0 6 0.5t10.5 0.5h10.5h6q105 0 181 -15t125 -55.5t72.5 -111.5t23.5 -184v-143 q0 -84 8.5 -141.5t33.5 -94t70.5 -54.5t118.5 -22v-150q-68 -3 -113 -20t-71 -50t-36.5 -82.5t-10.5 -118.5v-157q0 -125 -22 -201.5t-70.5 -119t-125.5 -57t-186 -14.5h-15.5t-15.5 1v159z" />
<glyph unicode="~" horiz-adv-x="1546" d="M150 490v214q100 72 186.5 106.5t170.5 34.5q31 0 61 -4.5t63 -13t69 -21t79 -29.5q84 -35 152 -58t121 -23q38 0 76.5 8.5t80 26.5t88 46.5t100.5 68.5v-205q-55 -41 -101.5 -68.5t-88.5 -44t-81.5 -24t-80.5 -7.5q-29 0 -55.5 3.5t-53.5 10.5t-55.5 17t-61.5 24 q-48 18 -91.5 35t-82.5 30t-74.5 21t-68.5 8q-40 0 -79.5 -9t-82 -27.5t-89.5 -48t-101 -71.5z" />
<glyph unicode="&#xa1;" horiz-adv-x="687" d="M168 110q0 52 46 86.5t127 34.5q39 0 70.5 -9t54 -24.5t35 -38t12.5 -49.5q0 -53 -44.5 -87.5t-127.5 -34.5t-128 32t-45 90zM183 1190v24t0.5 34t1 34.5t1.5 24.5h326q1 -8 1.5 -25t1 -35.5t0.5 -35.5v-25q0 -36 -5 -95.5t-13 -132t-18 -150.5t-20 -150t-20 -131.5 t-17 -94.5h-148q-7 34 -16.5 93.5t-19.5 131.5t-20 151t-17.5 152t-12.5 133.5t-5 96.5z" />
<glyph unicode="&#xa2;" horiz-adv-x="1246" d="M86 464q0 113 42.5 203.5t113 154t161 97.5t187.5 36v164h123v-172q33 -6 59.5 -12.5t49 -15.5t42 -21.5t40.5 -30.5l12 69h211v-370h-215q-5 42 -22 78.5t-45.5 63.5t-67.5 42.5t-87 15.5q-56 0 -100.5 -21.5t-76.5 -61t-49 -95t-17 -124.5q0 -68 17.5 -123.5t49.5 -95 t77 -61t100 -21.5q84 0 138 48t77 136l259 -56q-20 -71 -60.5 -128.5t-99 -99t-132.5 -65t-160 -25.5v-167h-123v168q-116 8 -209.5 46.5t-159 102.5t-100.5 150.5t-35 190.5z" />
<glyph unicode="&#xa3;" horiz-adv-x="1264" d="M56 218q0 58 21.5 103t56.5 75t79.5 45.5t91.5 15.5q48 0 92.5 -15.5t82.5 -47.5q-24 63 -52.5 131t-67.5 122h-270v140h198q-41 65 -60 126.5t-19 118.5q0 79 35 147t100 117t157 77t206 28q230 0 346.5 -89.5t118.5 -256.5l-261 -29q-8 81 -60.5 128t-134.5 47 q-47 0 -82 -12.5t-58.5 -34t-35 -51.5t-11.5 -64q0 -58 24 -124.5t62 -127.5h342v-140h-283q37 -109 37 -221q0 -60 -10 -116q52 -43 94.5 -66t90.5 -23q61 0 93 36.5t46 122.5l201 -46q-7 -83 -33.5 -148t-70 -110.5t-102 -69.5t-130.5 -24q-83 0 -153.5 35.5t-138.5 111.5 q-56 -72 -124.5 -109.5t-144.5 -37.5q-60 0 -110 17.5t-86.5 49t-56.5 75t-20 94.5zM228 223q0 -51 26 -74t62 -23q23 0 48 8.5t47 25t39.5 40t26.5 52.5q-37 35 -77.5 53t-75.5 18q-42 0 -69 -24.5t-27 -75.5z" />
<glyph unicode="&#xa4;" horiz-adv-x="1304" d="M112 370l167 166q-38 57 -56 116t-18 126q0 66 18 128.5t57 118.5l-168 167l125 124l171 -170q53 36 115 55.5t127 19.5q66 0 128 -19t119 -58l173 172l125 -124l-174 -172q35 -50 54.5 -112t19.5 -128q0 -61 -18 -123.5t-55 -116.5l173 -170l-125 -125l-172 169 q-55 -38 -117.5 -56t-130.5 -18q-67 0 -128.5 17t-115.5 55l-169 -167zM379 780q0 -56 21 -104.5t58 -84.5t86.5 -57t105.5 -21t105.5 21t86 57.5t58 85t21.5 103.5t-21.5 103.5t-58.5 85t-86.5 57.5t-104.5 21q-56 0 -105.5 -21.5t-86.5 -58t-58 -85t-21 -102.5z" />
<glyph unicode="&#xa5;" horiz-adv-x="1276" d="M21 1277v31q13 0 29 -0.5t42.5 -1t67.5 -1t106 -1.5q59 1 103.5 1.5t82 1t71.5 1t73 0.5v-178h-19q-51 0 -73.5 -7.5t-22.5 -27.5q0 -13 8 -31t22 -44l188 -339l188 321q18 31 32 55t14 41t-20.5 24.5t-70.5 7.5h-22v178q27 0 51 -0.5t52.5 -0.5t65 -0.5t88.5 -1.5 q48 1 81.5 1.5t59 0.5t44.5 0.5t38 0.5v-178q-34 0 -54.5 -3.5t-36 -14t-29 -29t-32.5 -47.5q-4 -5 -12.5 -18.5t-20.5 -32t-26 -39.5t-26.5 -40.5t-23.5 -36.5t-17 -26h222v-104h-293l-82 -123h375v-105h-414q-4 -5 -6.5 -15t-4.5 -19q-3 -11 -4 -23v-203q0 -24 4 -38 t16 -22t33 -10.5t54 -2.5h42v-178h-73t-73 0.5t-80.5 1t-93.5 0.5q-45 0 -83 -0.5t-72.5 -0.5t-66.5 -0.5t-66 -0.5v178h42q34 0 54.5 3t32 10.5t15 21t3.5 34.5v206l-15 58h-407v105h369l-80 123h-289v104h223l-112 179q-23 36 -37.5 57t-31 32.5t-39.5 15t-62 3.5v30.5 t-0.5 58t-0.5 58.5z" />
<glyph unicode="&#xa6;" horiz-adv-x="1115" d="M455 -120v736h206v-736h-206zM455 439v738h206v-738h-206z" />
<glyph unicode="&#xa7;" horiz-adv-x="1153" d="M90 535q0 83 42 148.5t127 123.5q-110 84 -110 227q0 71 29 127t83 95t132 59.5t176 20.5q85 0 160.5 -20.5t133.5 -62t93 -103.5t39 -145h-188q-13 107 -68.5 157.5t-164.5 50.5q-45 0 -81.5 -10.5t-62.5 -30t-40 -47.5t-14 -63q0 -36 15 -62t47.5 -47t82 -41t118.5 -45 q116 -42 197 -82.5t131.5 -87.5t73.5 -102.5t23 -127.5q0 -84 -43 -149t-126 -112q61 -48 91 -102t30 -125q0 -74 -30 -132t-86.5 -98.5t-137.5 -61.5t-184 -21q-61 0 -119.5 6t-111.5 20t-100 35.5t-84 53.5l-7 211h176q7 -102 62.5 -152.5t177.5 -50.5q100 0 153 38 t53 113q0 33 -16.5 60t-48 50.5t-76 45t-100.5 42.5q-105 39 -188 76.5t-140.5 83t-88 102.5t-30.5 135zM313 582q0 -39 19 -69.5t52 -56t77 -47t94.5 -42.5t103.5 -42t105 -46q43 32 62.5 69t19.5 79q0 60 -38.5 100t-102.5 71t-145.5 60.5t-167.5 68.5 q-44 -39 -61.5 -74.5t-17.5 -70.5z" />
<glyph unicode="&#xa8;" horiz-adv-x="853" d="M68 1231q0 27 10 50.5t28 41t42 27t52 9.5q27 0 51 -9.5t41 -26.5t27 -40.5t10 -51.5q0 -57 -36.5 -93t-93.5 -36q-29 0 -53 9.5t-41 27t-27 41t-10 51.5zM525 1231q0 27 10 50.5t27.5 40.5t41.5 27t52 10t51.5 -9.5t40.5 -27t27 -41t10 -50.5q0 -28 -9.5 -51.5t-27 -41 t-41 -27t-51.5 -9.5q-29 0 -53 10t-41 27t-27 41t-10 51z" />
<glyph unicode="&#xa9;" horiz-adv-x="1680" d="M102 696q0 103 27 197t76.5 175.5t117.5 147.5t150.5 113t175.5 72.5t192 25.5q105 0 200.5 -27.5t177.5 -76.5t148.5 -117t113.5 -149t72.5 -173t25.5 -188q0 -104 -28 -198.5t-77.5 -175.5t-118.5 -146.5t-151 -111.5t-174.5 -71t-189.5 -25q-106 0 -202 27.5t-178 76 t-148 116.5t-113 148.5t-72 172t-25 187.5zM217 696q0 -90 23.5 -171t65.5 -150t100 -124.5t127 -94.5t146.5 -60t159.5 -21q88 0 168.5 23t150 64.5t125.5 99t96 126.5t62 147t22 161q0 88 -23 168.5t-64.5 150t-99.5 126t-127 96.5t-147.5 62t-161.5 22 q-89 0 -169.5 -23.5t-150 -65.5t-125.5 -100t-95.5 -127.5t-61 -148t-21.5 -160.5zM426 693q0 94 34 170t91.5 130t133 83.5t157.5 29.5t145.5 -33.5t94.5 -84.5l3 127l113 -4v-280l-120 -5q-27 94 -88 142t-139 48q-50 0 -93.5 -20t-76 -59.5t-51.5 -98t-19 -136.5 q0 -81 18 -143t50 -103.5t75.5 -62.5t94.5 -21q72 0 136.5 42.5t106.5 131.5l105 -33q-27 -65 -65.5 -112t-85.5 -77t-103 -44t-118 -14q-87 0 -160 33t-126.5 90.5t-83 135.5t-29.5 168z" />
<glyph unicode="&#xaa;" horiz-adv-x="1054" d="M167 848q0 46 20 82.5t57.5 62t91.5 39.5t122 14q44 0 88 -5t83 -15v78q0 51 -35.5 81.5t-110.5 30.5q-123 0 -147 -98l-112 10l4 136q10 4 33.5 11.5t58.5 15t81.5 12.5t102.5 5q88 0 151 -12.5t103.5 -39.5t59.5 -70.5t19 -104.5v-224q0 -28 2 -43.5t7.5 -22.5t16 -8.5 t27.5 -1.5h33v-109h-23.5t-40.5 0.5t-42 0.5h-28q-38 -1 -65 -1t-65 -2l-20 89q-30 -47 -84.5 -74.5t-151.5 -27.5q-59 0 -103 15t-73.5 41t-44.5 61t-15 74zM367 864q0 -51 32.5 -79.5t82.5 -28.5q66 0 106.5 35t40.5 99v70q-29 8 -56 11.5t-56 3.5q-72 0 -111 -29t-39 -82 z" />
<glyph unicode="&#xab;" horiz-adv-x="1232" d="M98 454l240 397h285l-243 -397l243 -395h-285zM638 454l234 397h285l-244 -397l244 -395h-285z" />
<glyph unicode="&#xac;" horiz-adv-x="1537" d="M187 752v197h1161v-612h-196v415h-965z" />
<glyph unicode="&#xad;" horiz-adv-x="894" d="M98 308v341h697v-341h-697z" />
<glyph unicode="&#xae;" horiz-adv-x="1680" d="M102 696q0 103 27 197t76.5 175.5t117.5 147.5t150.5 113t175.5 72.5t192 25.5q106 0 201.5 -27.5t177.5 -76.5t148.5 -117t113 -149.5t72 -173t25.5 -187.5q0 -104 -28 -198.5t-77.5 -175.5t-118.5 -146.5t-151 -111.5t-175 -71t-190 -25q-106 0 -201.5 27.5 t-177.5 76.5t-148 116.5t-113 148.5t-72 172t-25 187zM217 696q0 -90 23.5 -171t65.5 -150t100 -124.5t127 -94.5t146.5 -60t159.5 -21q88 0 168.5 23t150 64.5t125.5 99t96 126.5t62 147t22 161q0 89 -23.5 170t-65 150.5t-99.5 125.5t-127 96t-147.5 61.5t-160.5 21.5 q-88 0 -168.5 -23.5t-150 -65.5t-125.5 -100t-96 -127.5t-61.5 -148t-21.5 -160.5zM479 304v88q25 1 39 6t21 14t9 21.5t2 29.5v503q0 17 -2 30.5t-9.5 23t-21.5 14.5t-38 7v67h309q73 0 141.5 -8t121 -32t84.5 -66.5t32 -111.5q0 -71 -55 -124t-158 -73q25 -9 47 -20.5 t40 -27.5t31.5 -39t20.5 -56q3 -15 7 -40t14 -50t28 -43t50 -18h36v-87h-102q-47 0 -78.5 19t-52.5 51.5t-34 76.5t-22 94q-9 35 -24 57.5t-36.5 35t-48.5 17.5t-60 5h-80v-224q0 -14 2.5 -23.5t10 -15.5t21 -9t35.5 -4v-88h-34.5t-42 0.5t-42.5 0.5h-35h-30.5t-37 -0.5 t-34.5 -0.5h-24zM690 751h101q108 0 163 28t55 98q0 75 -45 105.5t-139 30.5q-9 0 -31.5 -0.5t-45.5 -0.5h-58v-261z" />
<glyph unicode="&#xaf;" horiz-adv-x="682" d="M-110 1214v154h903v-154h-903z" />
<glyph unicode="&#xb0;" horiz-adv-x="746" d="M47 1098q0 67 25.5 126t70 102.5t104 69t127.5 25.5q67 0 126.5 -25.5t103.5 -69.5t69.5 -102.5t25.5 -125.5q0 -68 -26 -126.5t-70.5 -102t-104 -68.5t-125.5 -25q-68 0 -127.5 25.5t-103.5 69t-69.5 102t-25.5 125.5zM184 1098q0 -38 14.5 -71.5t39.5 -59t59.5 -40.5 t75.5 -15q39 0 73 14.5t59.5 40t40.5 59t15 72.5q0 36 -14 70t-39.5 60t-60 41.5t-74.5 15.5q-41 0 -75.5 -15t-60 -40.5t-39.5 -59.5t-14 -72z" />
<glyph unicode="&#xb1;" horiz-adv-x="1537" d="M188 15v196h1160v-196h-1160zM188 736v196h481v365h199v-365h480v-196h-480v-365h-199v365h-481z" />
<glyph unicode="&#xb2;" horiz-adv-x="905" d="M72 653v52q0 74 32.5 133t82 107t106.5 85.5t106.5 67t82 53.5t32.5 44t-18.5 29.5t-50.5 9.5q-35 0 -51.5 -11t-22.5 -24t-6 -24t-1 -11v1l-264 2q0 53 18 99t60 80.5t111.5 54.5t173.5 20q81 0 148 -17t115 -48t74.5 -75.5t26.5 -98.5q0 -46 -18.5 -81.5t-48.5 -63 t-68.5 -48t-78.5 -38t-79 -32t-69.5 -30t-49.5 -32.5t-20 -38h164q14 0 22.5 1t13.5 7t7 18.5t2 35.5h198v-228h-730z" />
<glyph unicode="&#xb3;" d="M134 867l191 5q1 -75 30 -110t84 -35q41 0 69.5 23.5t28.5 71.5q0 24 -13 41.5t-37 28.5t-57.5 16t-73.5 6v126q74 8 113.5 29.5t39.5 64.5q0 35 -21 57t-56 22q-50 0 -70 -32.5t-20 -92.5l-192 3v205q60 40 132.5 61t154.5 21q70 0 126 -16t95 -46t59.5 -73.5 t20.5 -98.5q0 -25 -8 -49.5t-24.5 -45t-41 -36t-58.5 -22.5q78 -16 116 -67t38 -117q0 -60 -23 -107.5t-66 -80.5t-105 -50.5t-141 -17.5q-53 0 -104 14t-92 50t-67 97t-28 155z" />
<glyph unicode="&#xb4;" horiz-adv-x="853" d="M242 1048l216 290q23 31 58 49t73 18q31 0 61 -8.5t53 -19.5t34.5 -22.5t5.5 -17.5l-362 -289h-139z" />
<glyph unicode="&#xb5;" horiz-adv-x="1229" d="M43 747v160h42.5t53.5 -0.5t48.5 -0.5h28.5q66 1 129.5 2t129.5 3v-513q0 -55 7 -98t24.5 -72t47.5 -44.5t76 -15.5q85 0 138.5 27t79.5 70q5 7 8 32.5t4.5 55.5t1.5 57v39v206q0 35 -5.5 53.5t-20.5 27t-41.5 10t-69.5 1.5v160q48 -1 95 -1h107q62 1 121 2t119 3v-688 q0 -20 5.5 -32.5t19.5 -19.5t38 -9t61 -2v-160q-47 0 -83.5 0.5t-74.5 0.5q-66 -1 -131 -1.5t-131 -2.5v140q-67 -81 -169 -119.5t-225 -38.5q-63 0 -103 18q0 -77 -2 -151t-7 -123q-11 -87 -47 -121.5t-95 -34.5q-18 0 -36 5t-32.5 19.5t-24 39.5t-9.5 65q0 72 7.5 163.5 t16.5 189t16.5 194.5t7.5 181v250q0 28 -5.5 43t-19.5 21.5t-38.5 7.5t-62.5 1z" />
<glyph unicode="&#xb6;" horiz-adv-x="1387" d="M109 1052q0 108 42 181t116.5 117t178 62.5t226.5 18.5h615v-174h-143v-1477h-180v1477h-193v-1477h-182v882q-125 1 -215.5 30t-149.5 80t-87 122.5t-28 157.5z" />
<glyph unicode="&#xb7;" horiz-adv-x="646" d="M145 748q0 52 46 86.5t127 34.5q39 0 70.5 -9t54 -24.5t35 -38t12.5 -49.5q0 -53 -44 -87.5t-128 -34.5q-82 0 -127.5 32t-45.5 90z" />
<glyph unicode="&#xb8;" horiz-adv-x="853" d="M210 -384l26 91q38 -16 77.5 -24.5t71.5 -8.5q104 0 104 79q0 36 -25.5 52.5t-68.5 17.5q-8 0 -15.5 -1t-15.5 -3l10 178h96l-3 -74q4 1 11 1h13q45 0 81.5 -13t62.5 -36t40 -56t14 -72q0 -43 -18 -76.5t-51 -56.5t-80 -35t-104 -13q-45 0 -102 10.5t-124 39.5z" />
<glyph unicode="&#xb9;" horiz-adv-x="905" d="M222 698v181h124v284q-40 -12 -64.5 -17t-35.5 -5h-12t-12 1v186q65 1 110 10.5t75.5 27t49.5 42t33 55.5h132v-584h122v-181h-522z" />
<glyph unicode="&#xba;" horiz-adv-x="857" d="M47 1014q0 73 27.5 131.5t77 99.5t119 63.5t153.5 22.5q86 0 157 -22t122 -63t79 -99.5t28 -132.5t-27.5 -133.5t-77.5 -101t-119.5 -63.5t-154.5 -22q-87 0 -158 22t-121 63.5t-77.5 101t-27.5 133.5zM269 1013q0 -94 40.5 -145.5t118.5 -51.5q77 0 118.5 51.5 t41.5 148.5q0 94 -41 145.5t-116 51.5q-78 0 -120 -51.5t-42 -148.5z" />
<glyph unicode="&#xbb;" horiz-adv-x="1232" d="M148 59l244 397l-244 395h285l240 -395l-240 -397h-285zM520 59l259 397l-243 395h286l239 -395l-239 -397h-302z" />
<glyph unicode="&#xbc;" horiz-adv-x="2281" d="M222 698v181h124v284q-40 -12 -64.5 -17t-35.5 -5h-12t-12 1v186q65 1 110 10.5t75.5 27t49.5 42t33 55.5h132v-584h122v-181h-522zM768 -96l396 1418h181l-397 -1418h-180zM1316 413l370 453h237v-453h113v-171h-113v-62q0 -7 4.5 -8.5t19.5 -1.5h73v-170h-100.5 t-60.5 1q-8 0 -20 0.5t-20 0.5q-18 0 -35.5 1t-44 1t-66.5 -0.5t-102 -3.5v170h84q20 0 28.5 1t8.5 5v66h-347zM1537 411h157v201z" />
<glyph unicode="&#xbd;" horiz-adv-x="2254" d="M222 698v181h124v284q-40 -12 -64.5 -17t-35.5 -5h-12t-12 1v186q65 1 110 10.5t75.5 27t49.5 42t33 55.5h132v-584h122v-181h-522zM768 -96l396 1418h181l-397 -1418h-180zM1315 3v52q0 74 32.5 133t82 107t106.5 85.5t106.5 67t82 53.5t32.5 44t-18.5 29.5t-50.5 9.5 q-35 0 -51.5 -11t-22.5 -24t-6 -24t-1 -11v1l-264 2q0 53 18 99t60 80.5t111.5 54.5t173.5 20q81 0 148 -17t115 -48t74.5 -75.5t26.5 -98.5q0 -46 -18.5 -81.5t-48.5 -63t-68.5 -48t-78.5 -38t-79 -32t-69.5 -30t-49.5 -32.5t-20 -38h164q14 0 22.5 1t13.5 7t7 18.5t2 35.5 h198v-228h-730z" />
<glyph unicode="&#xbe;" horiz-adv-x="2192" d="M155 867l191 5q1 -75 30 -110t84 -35q41 0 69.5 23.5t28.5 71.5q0 24 -13 41.5t-37 28.5t-57.5 16t-73.5 6v126q74 8 113.5 29.5t39.5 64.5q0 35 -21 57t-56 22q-50 0 -70 -32.5t-20 -92.5l-192 3v205q60 40 132.5 61t154.5 21q70 0 126 -16t95 -46t59.5 -73.5 t20.5 -98.5q0 -25 -8 -49.5t-24.5 -45t-41 -36t-58.5 -22.5q78 -16 116 -67t38 -117q0 -60 -23 -107.5t-66 -80.5t-105 -50.5t-141 -17.5q-53 0 -104 14t-92 50t-67 97t-28 155zM746 -96l396 1418h181l-397 -1418h-180zM1296 413l370 453h237v-453h113v-171h-113v-62 q0 -7 4.5 -8.5t19.5 -1.5h73v-170h-100.5t-60.5 1q-8 0 -20 0.5t-20 0.5q-18 0 -35.5 1t-44 1t-66.5 -0.5t-102 -3.5v170h84q20 0 28.5 1t8.5 5v66h-347zM1517 411h157v201z" />
<glyph unicode="&#xbf;" horiz-adv-x="1082" d="M75 955l22 275q88 51 193.5 78t228.5 27q135 0 231.5 -26.5t158 -73t90.5 -109.5t29 -136q0 -89 -38 -156.5t-98.5 -123.5t-135.5 -107t-150 -108l-10 -80h-202q-4 12 -7.5 28.5t-5.5 33.5t-3.5 31.5t-1.5 22.5q0 64 26.5 102.5t66.5 65t86 47t86 49t66.5 71t26.5 112.5 q0 50 -18 89t-48.5 65.5t-72 40.5t-88.5 14q-101 0 -161 -56.5t-60 -175.5h-211zM323 110q0 52 45.5 86.5t126.5 34.5q78 0 125 -33.5t47 -87.5q0 -53 -44 -87.5t-128 -34.5q-82 0 -127 32t-45 90z" />
<glyph unicode="&#xc0;" horiz-adv-x="1454" d="M4 0v178q36 4 58.5 7t37.5 11.5t26 25t23 46.5q8 19 25 62t39.5 101t49.5 126.5t55 139.5t55 140t50 127.5t40 102t25 63.5l46 178h387q87 -236 159 -430q31 -83 61 -164.5t55.5 -150t43.5 -117t24 -64.5q25 -69 39 -109t31.5 -61t44.5 -27.5t78 -7.5v-177 q-59 0 -114.5 1t-128.5 1q-86 0 -168.5 -0.5t-178.5 -1.5v165h11.5h15.5t15 0.5t10 0.5q48 2 66 10t18 28q0 12 -5 29.5t-13 40.5l-64 189h-461q-3 -11 -14 -42.5t-23.5 -67.5t-22.5 -67t-12 -39q-5 -14 -7.5 -25.5t-2.5 -18.5q0 -22 13.5 -29.5t45.5 -8.5q3 0 13 -0.5 t22 -0.5h22.5h14.5v-164q-61 0 -123 1t-134 1h-65.5t-59.5 -0.5t-59 -1t-64 -0.5zM470 1752q0 4 15 13t38.5 18.5t53 17t59.5 7.5q34 0 64.5 -10t47.5 -33l236 -317h-139q-10 9 -41.5 33t-73 54.5t-87 65t-84 65.5t-63.5 54t-26 32zM506 593h369l-179 526l-2 1z" />
<glyph unicode="&#xc1;" horiz-adv-x="1454" d="M4 0v178q36 4 58.5 7t37.5 11.5t26 25t23 46.5q8 19 25 62t39.5 101t49.5 126.5t55 139.5t55 140t50 127.5t40 102t25 63.5l46 178h387q87 -236 159 -430q31 -83 61 -164.5t55.5 -150t43.5 -117t24 -64.5q25 -69 39 -109t31.5 -61t44.5 -27.5t78 -7.5v-177 q-59 0 -114.5 1t-128.5 1q-86 0 -168.5 -0.5t-178.5 -1.5v165h11.5h15.5t15 0.5t10 0.5q48 2 66 10t18 28q0 12 -5 29.5t-13 40.5l-64 189h-461q-3 -11 -14 -42.5t-23.5 -67.5t-22.5 -67t-12 -39q-5 -14 -7.5 -25.5t-2.5 -18.5q0 -22 13.5 -29.5t45.5 -8.5q3 0 13 -0.5 t22 -0.5h22.5h14.5v-164q-61 0 -123 1t-134 1h-65.5t-59.5 -0.5t-59 -1t-64 -0.5zM472 1448l216 290q23 31 58 49t73 18q31 0 61 -8.5t53 -19.5t34.5 -22.5t5.5 -17.5l-362 -289h-139zM506 593h369l-179 526l-2 1z" />
<glyph unicode="&#xc2;" horiz-adv-x="1454" d="M4 0v178q36 4 58.5 7t37.5 11.5t26 25t23 46.5q8 19 25 62t39.5 101t49.5 126.5t55 139.5t55 140t50 127.5t40 102t25 63.5l46 178h387q87 -236 159 -430q31 -83 61 -164.5t55.5 -150t43.5 -117t24 -64.5q25 -69 39 -109t31.5 -61t44.5 -27.5t78 -7.5v-177 q-59 0 -114.5 1t-128.5 1q-86 0 -168.5 -0.5t-178.5 -1.5v165h11.5h15.5t15 0.5t10 0.5q48 2 66 10t18 28q0 12 -5 29.5t-13 40.5l-64 189h-461q-3 -11 -14 -42.5t-23.5 -67.5t-22.5 -67t-12 -39q-5 -14 -7.5 -25.5t-2.5 -18.5q0 -22 13.5 -29.5t45.5 -8.5q3 0 13 -0.5 t22 -0.5h22.5h14.5v-164q-61 0 -123 1t-134 1h-65.5t-59.5 -0.5t-59 -1t-64 -0.5zM379 1453l219 337h256l221 -337h-154l-194 165l-196 -165h-152zM506 593h369l-179 526l-2 1z" />
<glyph unicode="&#xc3;" horiz-adv-x="1454" d="M4 0v178q36 4 58.5 7t37.5 11.5t26 25t23 46.5q8 19 25 62t39.5 101t49.5 126.5t55 139.5t55 140t50 127.5t40 102t25 63.5l46 178h387q87 -236 159 -430q31 -83 61 -164.5t55.5 -150t43.5 -117t24 -64.5q25 -69 39 -109t31.5 -61t44.5 -27.5t78 -7.5v-177 q-59 0 -114.5 1t-128.5 1q-86 0 -168.5 -0.5t-178.5 -1.5v165h11.5h15.5t15 0.5t10 0.5q48 2 66 10t18 28q0 12 -5 29.5t-13 40.5l-64 189h-461q-3 -11 -14 -42.5t-23.5 -67.5t-22.5 -67t-12 -39q-5 -14 -7.5 -25.5t-2.5 -18.5q0 -22 13.5 -29.5t45.5 -8.5q3 0 13 -0.5 t22 -0.5h22.5h14.5v-164q-61 0 -123 1t-134 1h-65.5t-59.5 -0.5t-59 -1t-64 -0.5zM377 1481q20 128 77 193t152 65q34 0 67 -10t65 -22t63 -22t62 -10q37 0 58.5 19.5t37.5 64.5h117q-15 -121 -73.5 -189t-155.5 -68q-35 0 -68 10t-64.5 22.5t-61.5 22.5t-58 10 q-38 0 -62 -23t-38 -63h-118zM506 593h369l-179 526l-2 1z" />
<glyph unicode="&#xc4;" horiz-adv-x="1454" d="M4 0v178q36 4 58.5 7t37.5 11.5t26 25t23 46.5q8 19 25 62t39.5 101t49.5 126.5t55 139.5t55 140t50 127.5t40 102t25 63.5l46 178h387q87 -236 159 -430q31 -83 61 -164.5t55.5 -150t43.5 -117t24 -64.5q25 -69 39 -109t31.5 -61t44.5 -27.5t78 -7.5v-177 q-59 0 -114.5 1t-128.5 1q-86 0 -168.5 -0.5t-178.5 -1.5v165h11.5h15.5t15 0.5t10 0.5q48 2 66 10t18 28q0 12 -5 29.5t-13 40.5l-64 189h-461q-3 -11 -14 -42.5t-23.5 -67.5t-22.5 -67t-12 -39q-5 -14 -7.5 -25.5t-2.5 -18.5q0 -22 13.5 -29.5t45.5 -8.5q3 0 13 -0.5 t22 -0.5h22.5h14.5v-164q-61 0 -123 1t-134 1h-65.5t-59.5 -0.5t-59 -1t-64 -0.5zM368 1631q0 27 10 50.5t28 41t42 27t52 9.5q27 0 51 -9.5t41 -26.5t27 -40.5t10 -51.5q0 -57 -36.5 -93t-93.5 -36q-29 0 -53 9.5t-41 27t-27 41t-10 51.5zM506 593h369l-179 526l-2 1z M825 1631q0 27 10 50.5t27.5 40.5t41.5 27t52 10t51.5 -9.5t40.5 -27t27 -41t10 -50.5q0 -28 -9.5 -51.5t-27 -41t-41 -27t-51.5 -9.5q-29 0 -53 10t-41 27t-27 41t-10 51z" />
<glyph unicode="&#xc5;" horiz-adv-x="1454" d="M4 0v178q36 4 58.5 7t37.5 11.5t26 25t23 46.5q8 19 25 62t39.5 101t49.5 126.5t55 139.5t55 140t50 127.5t40 102t25 63.5l46 178h387q87 -236 159 -430q31 -83 61 -164.5t55.5 -150t43.5 -117t24 -64.5q25 -69 39 -109t31.5 -61t44.5 -27.5t78 -7.5v-177 q-59 0 -114.5 1t-128.5 1q-86 0 -168.5 -0.5t-178.5 -1.5v165h11.5h15.5t15 0.5t10 0.5q48 2 66 10t18 28q0 12 -5 29.5t-13 40.5l-64 189h-461q-3 -11 -14 -42.5t-23.5 -67.5t-22.5 -67t-12 -39q-5 -14 -7.5 -25.5t-2.5 -18.5q0 -22 13.5 -29.5t45.5 -8.5q3 0 13 -0.5 t22 -0.5h22.5h14.5v-164q-61 0 -123 1t-134 1h-65.5t-59.5 -0.5t-59 -1t-64 -0.5zM488 1656q0 47 18.5 88t50.5 71t75.5 47.5t93.5 17.5t93.5 -18t75.5 -48.5t50.5 -71t18.5 -86.5q0 -48 -19 -89.5t-51.5 -72t-75.5 -48t-92 -17.5q-50 0 -93.5 18t-75.5 48.5t-50.5 72 t-18.5 88.5zM506 593h369l-179 526l-2 1zM601 1656q0 -26 9.5 -49t26.5 -39.5t40 -26t49 -9.5t48.5 9.5t39.5 26.5t26.5 39.5t9.5 48.5q0 25 -10 47.5t-26.5 39t-39.5 26t-48 9.5q-26 0 -49 -10t-40 -26.5t-26.5 -38.5t-9.5 -47z" />
<glyph unicode="&#xc6;" horiz-adv-x="2010" d="M-61 0v178q40 0 65.5 8.5t45 27t38 49.5t45.5 76l465 778l116 191h1194v-366h-196v45q0 46 -4 71.5t-11.5 37.5t-19 14t-26.5 2h-417v-363h250q9 0 17.5 1.5t15 9t10.5 24.5t4 48h82v-331h-82q0 31 -3.5 47.5t-9.5 24t-14.5 9t-18.5 1.5h-251v-386h427q18 0 29 4t17 22.5 t8.5 56.5t2.5 106h194v-386h-1165v178h44q42 0 65.5 4.5t34.5 12t13 17.5t2 21v275h-434l-113 -194q-24 -41 -37 -66.5t-13 -40.5q0 -18 21.5 -23.5t69.5 -5.5h57v-178q-65 1 -121.5 1.5t-122.5 0.5h-73t-66 -0.5t-65 -1t-70 -0.5zM559 673h343v457h-76z" />
<glyph unicode="&#xc7;" horiz-adv-x="1446" d="M109 654q0 149 45.5 274t130.5 215t207 140t276 50q46 0 95 -8t94 -23t83.5 -36t65.5 -47l5 86h222v-410l-205 1q-8 114 -82 178.5t-214 64.5q-85 0 -152 -31t-113.5 -91.5t-71.5 -151t-25 -208.5q0 -116 25 -207t72 -153.5t114.5 -95.5t153.5 -33q76 0 133.5 16t96.5 52 t60.5 94t25.5 142l204 -44l-15 -304q-118 -79 -251 -114.5t-288 -35.5q-182 0 -313 53t-215 145t-124 216t-40 266zM483 -384l26 91q38 -16 77.5 -24.5t71.5 -8.5q104 0 104 79q0 36 -25.5 52.5t-68.5 17.5q-8 0 -15.5 -1t-15.5 -3l10 178h96l-3 -74q4 1 11 1h13 q45 0 81.5 -13t62.5 -36t40 -56t14 -72q0 -43 -18 -76.5t-51 -56.5t-80 -35t-104 -13q-45 0 -102 10.5t-124 39.5z" />
<glyph unicode="&#xc8;" horiz-adv-x="1316" d="M68 0v178h74q26 0 40.5 9t22 25t9 36t1.5 43v720q0 22 -1 44t-8 39t-21.5 27.5t-42.5 10.5h-70v176h1139v-364h-195v41q0 48 -10 74t-28 37.5t-44 13.5t-58 2h-335v-363h197q22 0 37.5 2.5t26.5 11.5t18.5 28t12.5 52h85v-354h-86q-6 32 -13 51t-18 28.5t-26 12t-37 2.5 h-197v-389h349q37 0 62 5t40.5 22t22.5 48.5t7 84.5v32h193v-386h-1147zM401 1752q0 4 15 13t38.5 18.5t53 17t59.5 7.5q34 0 64.5 -10t47.5 -33l236 -317h-139q-10 9 -41.5 33t-73 54.5t-87 65t-84 65.5t-63.5 54t-26 32z" />
<glyph unicode="&#xc9;" horiz-adv-x="1316" d="M68 0v178h74q26 0 40.5 9t22 25t9 36t1.5 43v720q0 22 -1 44t-8 39t-21.5 27.5t-42.5 10.5h-70v176h1139v-364h-195v41q0 48 -10 74t-28 37.5t-44 13.5t-58 2h-335v-363h197q22 0 37.5 2.5t26.5 11.5t18.5 28t12.5 52h85v-354h-86q-6 32 -13 51t-18 28.5t-26 12t-37 2.5 h-197v-389h349q37 0 62 5t40.5 22t22.5 48.5t7 84.5v32h193v-386h-1147zM403 1448l216 290q23 31 58 49t73 18q31 0 61 -8.5t53 -19.5t34.5 -22.5t5.5 -17.5l-362 -289h-139z" />
<glyph unicode="&#xca;" horiz-adv-x="1316" d="M68 0v178h74q26 0 40.5 9t22 25t9 36t1.5 43v720q0 22 -1 44t-8 39t-21.5 27.5t-42.5 10.5h-70v176h1139v-364h-195v41q0 48 -10 74t-28 37.5t-44 13.5t-58 2h-335v-363h197q22 0 37.5 2.5t26.5 11.5t18.5 28t12.5 52h85v-354h-86q-6 32 -13 51t-18 28.5t-26 12t-37 2.5 h-197v-389h349q37 0 62 5t40.5 22t22.5 48.5t7 84.5v32h193v-386h-1147zM310 1453l219 337h256l221 -337h-154l-194 165l-196 -165h-152z" />
<glyph unicode="&#xcb;" horiz-adv-x="1316" d="M68 0v178h74q26 0 40.5 9t22 25t9 36t1.5 43v720q0 22 -1 44t-8 39t-21.5 27.5t-42.5 10.5h-70v176h1139v-364h-195v41q0 48 -10 74t-28 37.5t-44 13.5t-58 2h-335v-363h197q22 0 37.5 2.5t26.5 11.5t18.5 28t12.5 52h85v-354h-86q-6 32 -13 51t-18 28.5t-26 12t-37 2.5 h-197v-389h349q37 0 62 5t40.5 22t22.5 48.5t7 84.5v32h193v-386h-1147zM299 1631q0 27 10 50.5t28 41t42 27t52 9.5q27 0 51 -9.5t41 -26.5t27 -40.5t10 -51.5q0 -57 -36.5 -93t-93.5 -36q-29 0 -53 9.5t-41 27t-27 41t-10 51.5zM756 1631q0 27 10 50.5t27.5 40.5t41.5 27 t52 10t51.5 -9.5t40.5 -27t27 -41t10 -50.5q0 -28 -9.5 -51.5t-27 -41t-41 -27t-51.5 -9.5q-29 0 -53 10t-41 27t-27 41t-10 51z" />
<glyph unicode="&#xcc;" horiz-adv-x="761" d="M75 0v178h40q39 0 60 7t31 21t11.5 35t1.5 49v725q0 29 -2 50.5t-12 36t-31 21.5t-59 7h-40v178q45 -1 82 -1.5t69 -0.5h61.5h58.5h106.5h86t76 0.5t76.5 1.5v-178h-42q-36 0 -56.5 -6.5t-31 -19t-13 -30t-2.5 -39.5v-766q0 -27 2 -44.5t12 -28t30.5 -14.5t58.5 -4h42 v-178q-37 0 -72 0.5t-71.5 0.5t-78 0.5t-90.5 0.5q-92 0 -162.5 -1t-141.5 -1zM124 1752q0 4 15 13t38.5 18.5t53 17t59.5 7.5q34 0 64.5 -10t47.5 -33l236 -317h-139q-10 9 -41.5 33t-73 54.5t-87 65t-84 65.5t-63.5 54t-26 32z" />
<glyph unicode="&#xcd;" horiz-adv-x="761" d="M75 0v178h40q39 0 60 7t31 21t11.5 35t1.5 49v725q0 29 -2 50.5t-12 36t-31 21.5t-59 7h-40v178q45 -1 82 -1.5t69 -0.5h61.5h58.5h106.5h86t76 0.5t76.5 1.5v-178h-42q-36 0 -56.5 -6.5t-31 -19t-13 -30t-2.5 -39.5v-766q0 -27 2 -44.5t12 -28t30.5 -14.5t58.5 -4h42 v-178q-37 0 -72 0.5t-71.5 0.5t-78 0.5t-90.5 0.5q-92 0 -162.5 -1t-141.5 -1zM130 1448l216 290q23 31 58 49t73 18q31 0 61 -8.5t53 -19.5t34.5 -22.5t5.5 -17.5l-362 -289h-139z" />
<glyph unicode="&#xce;" horiz-adv-x="761" d="M37 1453l219 337h256l221 -337h-154l-194 165l-196 -165h-152zM75 0v178h40q39 0 60 7t31 21t11.5 35t1.5 49v725q0 29 -2 50.5t-12 36t-31 21.5t-59 7h-40v178q45 -1 82 -1.5t69 -0.5h61.5h58.5h106.5h86t76 0.5t76.5 1.5v-178h-42q-36 0 -56.5 -6.5t-31 -19t-13 -30 t-2.5 -39.5v-766q0 -27 2 -44.5t12 -28t30.5 -14.5t58.5 -4h42v-178q-37 0 -72 0.5t-71.5 0.5t-78 0.5t-90.5 0.5q-92 0 -162.5 -1t-141.5 -1z" />
<glyph unicode="&#xcf;" horiz-adv-x="761" d="M26 1631q0 27 10 50.5t28 41t42 27t52 9.5q27 0 51 -9.5t41 -26.5t27 -40.5t10 -51.5q0 -57 -36.5 -93t-93.5 -36q-29 0 -53 9.5t-41 27t-27 41t-10 51.5zM75 0v178h40q39 0 60 7t31 21t11.5 35t1.5 49v725q0 29 -2 50.5t-12 36t-31 21.5t-59 7h-40v178q45 -1 82 -1.5 t69 -0.5h61.5h58.5h106.5h86t76 0.5t76.5 1.5v-178h-42q-36 0 -56.5 -6.5t-31 -19t-13 -30t-2.5 -39.5v-766q0 -27 2 -44.5t12 -28t30.5 -14.5t58.5 -4h42v-178q-37 0 -72 0.5t-71.5 0.5t-78 0.5t-90.5 0.5q-92 0 -162.5 -1t-141.5 -1zM483 1631q0 27 10 50.5t27.5 40.5 t41.5 27t52 10t51.5 -9.5t40.5 -27t27 -41t10 -50.5q0 -28 -9.5 -51.5t-27 -41t-41 -27t-51.5 -9.5q-29 0 -53 10t-41 27t-27 41t-10 51z" />
<glyph unicode="&#xd0;" horiz-adv-x="1584" d="M65 0v178h49q31 0 49 8.5t27 23t11.5 34.5t2.5 44v36.5t-0.5 86.5t-0.5 120v136v368q0 21 -3.5 38t-13 30t-27 20.5t-45.5 7.5h-49v177h560q426 0 635 -161.5t209 -485.5q0 -187 -58.5 -313.5t-166 -204t-259 -110.5t-338.5 -33h-582zM66 527v265h661v-265h-661zM531 194 h144q110 0 192.5 27t137 84.5t82 146.5t27.5 213q0 234 -108.5 341.5t-331.5 107.5h-143v-920z" />
<glyph unicode="&#xd1;" horiz-adv-x="1543" d="M52 0v178h52q37 0 56.5 7t28.5 21t10 35.5t1 50.5v737q0 30 -2 49.5t-11.5 31t-28.5 16t-52 4.5h-52v178h265h24h42.5h52h52h43h24.5l571 -963h2l-1 701q0 28 -4 44.5t-15 25.5t-30.5 11.5t-50.5 2.5h-46v178q75 0 134.5 -1t108.5 -1h22.5h35.5t43 0.5t46 0.5q54 0 118 1 v-178h-51q-34 0 -52 -7.5t-26.5 -21t-10 -33t-1.5 -42.5v-48v-119.5v-166.5v-190v-516h-329l-601 1002h-2l1 -722q0 -31 3.5 -48.5t15 -26.5t31.5 -11t53 -2h49v-178q-57 0 -115.5 1t-135.5 1q-43 0 -78 -0.5t-66.5 -0.5t-61.5 -0.5t-62 -0.5zM422 1481q20 128 77 193 t152 65q34 0 67 -10t65 -22t63 -22t62 -10q37 0 58.5 19.5t37.5 64.5h117q-15 -121 -73.5 -189t-155.5 -68q-35 0 -68 10t-64.5 22.5t-61.5 22.5t-58 10q-38 0 -62 -23t-38 -63h-118z" />
<glyph unicode="&#xd2;" horiz-adv-x="1575" d="M99 655q0 143 45 266.5t132.5 215t216 144t295.5 52.5q165 0 292.5 -52t215 -143.5t133 -215.5t45.5 -267t-45.5 -267t-132.5 -216t-214 -145t-291 -53q-166 0 -295 52t-217 143.5t-134 216t-46 269.5zM462 657q0 -117 20 -208t60 -153.5t101 -95t144 -32.5 q84 0 145.5 33.5t101 96.5t59 153.5t19.5 204.5q0 234 -80 358.5t-245 124.5q-86 0 -147.5 -33t-101 -95.5t-58 -152t-18.5 -201.5zM531 1752q0 4 15 13t38.5 18.5t53 17t59.5 7.5q34 0 64.5 -10t47.5 -33l236 -317h-139q-10 9 -41.5 33t-73 54.5t-87 65t-84 65.5t-63.5 54 t-26 32z" />
<glyph unicode="&#xd3;" horiz-adv-x="1575" d="M99 655q0 143 45 266.5t132.5 215t216 144t295.5 52.5q165 0 292.5 -52t215 -143.5t133 -215.5t45.5 -267t-45.5 -267t-132.5 -216t-214 -145t-291 -53q-166 0 -295 52t-217 143.5t-134 216t-46 269.5zM462 657q0 -117 20 -208t60 -153.5t101 -95t144 -32.5 q84 0 145.5 33.5t101 96.5t59 153.5t19.5 204.5q0 234 -80 358.5t-245 124.5q-86 0 -147.5 -33t-101 -95.5t-58 -152t-18.5 -201.5zM533 1448l216 290q23 31 58 49t73 18q31 0 61 -8.5t53 -19.5t34.5 -22.5t5.5 -17.5l-362 -289h-139z" />
<glyph unicode="&#xd4;" horiz-adv-x="1575" d="M99 655q0 143 45 266.5t132.5 215t216 144t295.5 52.5q165 0 292.5 -52t215 -143.5t133 -215.5t45.5 -267t-45.5 -267t-132.5 -216t-214 -145t-291 -53q-166 0 -295 52t-217 143.5t-134 216t-46 269.5zM440 1453l219 337h256l221 -337h-154l-194 165l-196 -165h-152z M462 657q0 -117 20 -208t60 -153.5t101 -95t144 -32.5q84 0 145.5 33.5t101 96.5t59 153.5t19.5 204.5q0 234 -80 358.5t-245 124.5q-86 0 -147.5 -33t-101 -95.5t-58 -152t-18.5 -201.5z" />
<glyph unicode="&#xd5;" horiz-adv-x="1575" d="M99 655q0 143 45 266.5t132.5 215t216 144t295.5 52.5q165 0 292.5 -52t215 -143.5t133 -215.5t45.5 -267t-45.5 -267t-132.5 -216t-214 -145t-291 -53q-166 0 -295 52t-217 143.5t-134 216t-46 269.5zM438 1481q20 128 77 193t152 65q34 0 67 -10t65 -22t63 -22t62 -10 q37 0 58.5 19.5t37.5 64.5h117q-15 -121 -73.5 -189t-155.5 -68q-35 0 -68 10t-64.5 22.5t-61.5 22.5t-58 10q-38 0 -62 -23t-38 -63h-118zM462 657q0 -117 20 -208t60 -153.5t101 -95t144 -32.5q84 0 145.5 33.5t101 96.5t59 153.5t19.5 204.5q0 234 -80 358.5t-245 124.5 q-86 0 -147.5 -33t-101 -95.5t-58 -152t-18.5 -201.5z" />
<glyph unicode="&#xd6;" horiz-adv-x="1575" d="M99 655q0 143 45 266.5t132.5 215t216 144t295.5 52.5q165 0 292.5 -52t215 -143.5t133 -215.5t45.5 -267t-45.5 -267t-132.5 -216t-214 -145t-291 -53q-166 0 -295 52t-217 143.5t-134 216t-46 269.5zM429 1631q0 27 10 50.5t28 41t42 27t52 9.5q27 0 51 -9.5t41 -26.5 t27 -40.5t10 -51.5q0 -57 -36.5 -93t-93.5 -36q-29 0 -53 9.5t-41 27t-27 41t-10 51.5zM462 657q0 -117 20 -208t60 -153.5t101 -95t144 -32.5q84 0 145.5 33.5t101 96.5t59 153.5t19.5 204.5q0 234 -80 358.5t-245 124.5q-86 0 -147.5 -33t-101 -95.5t-58 -152 t-18.5 -201.5zM886 1631q0 27 10 50.5t27.5 40.5t41.5 27t52 10t51.5 -9.5t40.5 -27t27 -41t10 -50.5q0 -28 -9.5 -51.5t-27 -41t-41 -27t-51.5 -9.5q-29 0 -53 10t-41 27t-27 41t-10 51z" />
<glyph unicode="&#xd7;" horiz-adv-x="1536" d="M219 230l412 407l-411 409l137 138l414 -408l413 408l139 -138l-412 -409l413 -407l-140 -140l-413 409l-414 -409z" />
<glyph unicode="&#xd8;" horiz-adv-x="1575" d="M99 649q0 152 47.5 278t136.5 217t216.5 141t287.5 50q108 0 205 -25t172 -73l97 127l132 -45l-122 -159q97 -87 150.5 -213t53.5 -297q0 -152 -48 -276.5t-137.5 -213.5t-217 -137.5t-285.5 -48.5q-116 0 -209 23.5t-174 74.5l-112 -150l-131 51l134 178 q-98 91 -147 216t-49 282zM457 649q0 -66 12.5 -120.5t43.5 -107.5l498 630q-46 52 -99 74t-124 22q-167 0 -249 -129t-82 -369zM562 267q81 -102 225 -102q89 0 151.5 36t102 102t57.5 158.5t18 205.5q0 69 -13 127.5t-40 106.5z" />
<glyph unicode="&#xd9;" horiz-adv-x="1411" d="M47 1130v178q15 0 47.5 -0.5t70.5 -1t76.5 -1t66.5 -0.5h76.5t76.5 0.5t81.5 1t90.5 1.5v-178h-33q-36 0 -55.5 -9.5t-29 -25t-11.5 -36t-2 -41.5v-521q0 -80 12.5 -141.5t42.5 -103t81 -63t128 -21.5q70 0 116 20t73 60t38 99t11 137v542q0 19 -2 37.5t-12 33.5 t-30.5 24t-56.5 9h-36v178q13 -1 46 -1.5t73 -0.5h80h69h42t57.5 0.5t66 1t66.5 0.5v-178h-47q-35 0 -52.5 -11.5t-25 -28.5t-7.5 -36.5v-35.5v-518q0 -129 -29 -227.5t-91.5 -165t-162 -100t-240.5 -33.5q-142 0 -243.5 31.5t-166 96t-94.5 162t-30 229.5v560q0 11 -2 24.5 t-11 25t-26.5 19.5t-48.5 8h-43zM448 1752q0 4 15 13t38.5 18.5t53 17t59.5 7.5q34 0 64.5 -10t47.5 -33l236 -317h-139q-10 9 -41.5 33t-73 54.5t-87 65t-84 65.5t-63.5 54t-26 32z" />
<glyph unicode="&#xda;" horiz-adv-x="1411" d="M47 1130v178q15 0 47.5 -0.5t70.5 -1t76.5 -1t66.5 -0.5h76.5t76.5 0.5t81.5 1t90.5 1.5v-178h-33q-36 0 -55.5 -9.5t-29 -25t-11.5 -36t-2 -41.5v-521q0 -80 12.5 -141.5t42.5 -103t81 -63t128 -21.5q70 0 116 20t73 60t38 99t11 137v542q0 19 -2 37.5t-12 33.5 t-30.5 24t-56.5 9h-36v178q13 -1 46 -1.5t73 -0.5h80h69h42t57.5 0.5t66 1t66.5 0.5v-178h-47q-35 0 -52.5 -11.5t-25 -28.5t-7.5 -36.5v-35.5v-518q0 -129 -29 -227.5t-91.5 -165t-162 -100t-240.5 -33.5q-142 0 -243.5 31.5t-166 96t-94.5 162t-30 229.5v560q0 11 -2 24.5 t-11 25t-26.5 19.5t-48.5 8h-43zM450 1448l216 290q23 31 58 49t73 18q31 0 61 -8.5t53 -19.5t34.5 -22.5t5.5 -17.5l-362 -289h-139z" />
<glyph unicode="&#xdb;" horiz-adv-x="1411" d="M47 1130v178q15 0 47.5 -0.5t70.5 -1t76.5 -1t66.5 -0.5h76.5t76.5 0.5t81.5 1t90.5 1.5v-178h-33q-36 0 -55.5 -9.5t-29 -25t-11.5 -36t-2 -41.5v-521q0 -80 12.5 -141.5t42.5 -103t81 -63t128 -21.5q70 0 116 20t73 60t38 99t11 137v542q0 19 -2 37.5t-12 33.5 t-30.5 24t-56.5 9h-36v178q13 -1 46 -1.5t73 -0.5h80h69h42t57.5 0.5t66 1t66.5 0.5v-178h-47q-35 0 -52.5 -11.5t-25 -28.5t-7.5 -36.5v-35.5v-518q0 -129 -29 -227.5t-91.5 -165t-162 -100t-240.5 -33.5q-142 0 -243.5 31.5t-166 96t-94.5 162t-30 229.5v560q0 11 -2 24.5 t-11 25t-26.5 19.5t-48.5 8h-43zM357 1453l219 337h256l221 -337h-154l-194 165l-196 -165h-152z" />
<glyph unicode="&#xdc;" horiz-adv-x="1411" d="M47 1130v178q15 0 47.5 -0.5t70.5 -1t76.5 -1t66.5 -0.5h76.5t76.5 0.5t81.5 1t90.5 1.5v-178h-33q-36 0 -55.5 -9.5t-29 -25t-11.5 -36t-2 -41.5v-521q0 -80 12.5 -141.5t42.5 -103t81 -63t128 -21.5q70 0 116 20t73 60t38 99t11 137v542q0 19 -2 37.5t-12 33.5 t-30.5 24t-56.5 9h-36v178q13 -1 46 -1.5t73 -0.5h80h69h42t57.5 0.5t66 1t66.5 0.5v-178h-47q-35 0 -52.5 -11.5t-25 -28.5t-7.5 -36.5v-35.5v-518q0 -129 -29 -227.5t-91.5 -165t-162 -100t-240.5 -33.5q-142 0 -243.5 31.5t-166 96t-94.5 162t-30 229.5v560q0 11 -2 24.5 t-11 25t-26.5 19.5t-48.5 8h-43zM347 1631q0 27 10 50.5t28 41t42 27t52 9.5q27 0 51 -9.5t41 -26.5t27 -40.5t10 -51.5q0 -57 -36.5 -93t-93.5 -36q-29 0 -53 9.5t-41 27t-27 41t-10 51.5zM804 1631q0 27 10 50.5t27.5 40.5t41.5 27t52 10t51.5 -9.5t40.5 -27t27 -41 t10 -50.5q0 -28 -9.5 -51.5t-27 -41t-41 -27t-51.5 -9.5q-29 0 -53 10t-41 27t-27 41t-10 51z" />
<glyph unicode="&#xdd;" horiz-adv-x="1320" d="M16 1308q7 0 29 -0.5t50 -1l56 -1t46 -0.5q46 0 89 0.5t90.5 1t101.5 1t121 0.5v-178h-31q-49 0 -70 -7.5t-21 -27.5q3 -6 7.5 -15.5t10 -20.5t10.5 -22t10 -18q6 -12 20.5 -37.5t33 -57.5t39 -67t39 -67t32.5 -57.5t20 -37.5l197 327q15 25 25 44t12 33q-4 16 -24 22 t-62 8q-4 0 -15 0.5t-16 0.5v178q59 -1 112 -1q22 0 45.5 -0.5t44.5 -0.5h38h28h99.5t119.5 2v-178q-33 0 -53 -3.5t-35.5 -13t-29.5 -28t-34 -48.5q-25 -35 -55 -80t-62 -93.5t-64 -98t-60.5 -94t-52 -81t-38.5 -58.5v-262q0 -23 2 -40t12 -28.5t29.5 -17.5t55.5 -6h49 v-178h-72.5t-73.5 0.5t-80 1t-92 0.5q-30 0 -72.5 -0.5t-86 -0.5t-81.5 -0.5t-57 -0.5v178h48q39 0 59 9.5t29 23.5t9.5 29.5t0.5 27.5v266q-15 22 -39.5 60.5t-54 85t-62 97.5t-62 97.5t-54 85t-38.5 61.5q-24 37 -38.5 58t-31 32.5t-39.5 14.5t-62 4q0 44 -0.5 88.5 t-0.5 89.5zM401 1452l216 290q23 31 58 49t73 18q31 0 61 -8.5t53 -19.5t34.5 -22.5t5.5 -17.5l-362 -289h-139z" />
<glyph unicode="&#xde;" horiz-adv-x="1357" d="M73 0v111h39q42 0 66 11.5t35 32t13.5 47.5t2.5 57q0 20 -1 41.5t-1 42.5v716q0 28 -4.5 53t-15 43.5t-28.5 29.5t-46 11h-60v112q15 0 57 -0.5t94.5 -1t107.5 -1t94 -0.5q138 0 281 3v-112h-35q-26 0 -47 -2.5t-37 -11.5t-24.5 -27t-8.5 -50v-49h218q141 0 241 -29.5 t163.5 -81.5t93 -123t29.5 -155q0 -86 -25.5 -157.5t-89 -123t-172.5 -80t-276 -28.5h-182v-51q0 -36 5.5 -59t19 -35.5t36.5 -17t58 -4.5h35v-111h-68t-68 0.5t-74.5 1t-86.5 0.5q-53 0 -97.5 -0.5t-85 -0.5t-78.5 -0.5t-78 -0.5zM555 458h158q134 0 194.5 55t60.5 158 q0 102 -63 152t-207 50h-143v-415z" />
<glyph unicode="&#xdf;" horiz-adv-x="1337" d="M42 0v164q48 0 75 1.5t39.5 11t15 29.5t2.5 57v613q0 116 28 202.5t89.5 143.5t159.5 85t238 28q112 0 201 -20.5t151.5 -61t96 -101.5t33.5 -143q0 -103 -54 -170t-157 -97q1 -1 1.5 -1t1.5 -1q146 -24 224 -114.5t78 -242.5q0 -89 -25.5 -163.5t-76.5 -128.5 t-128.5 -84t-181.5 -30q-29 0 -61 4.5t-64 14.5v137q11 -1 23.5 -0.5t24.5 2.5q37 5 69 20.5t55.5 44.5t36.5 73.5t13 109.5q0 74 -13.5 125t-45 84t-83 50.5t-127.5 23.5v135q99 4 143 53t44 145q0 89 -52 138t-137 49q-103 0 -151.5 -64.5t-48.5 -201.5v-666 q0 -27 3.5 -44.5t16 -27.5t36 -14t63.5 -4v-164q-33 0 -64.5 0.5t-64.5 0.5t-69.5 0.5t-79.5 0.5q-83 0 -147.5 -1t-130.5 -1z" />
<glyph unicode="&#xe0;" horiz-adv-x="1203" d="M63 259q0 67 29.5 121t85 91.5t134.5 58t179 20.5q65 0 130 -7.5t123 -22.5v115q0 76 -52.5 121t-162.5 45q-182 0 -217 -145l-165 15l6 200q15 7 49 18t86 21.5t120 18t151 7.5q130 0 223 -18.5t152.5 -58.5t87.5 -103.5t28 -154.5v-329q0 -41 2.5 -64t11 -33.5 t23.5 -12.5t41 -2h48v-160h-35t-59 0.5t-61.5 0.5h-41.5q-28 0 -51 -0.5t-44.5 -1t-44.5 -1t-51 -1.5l-30 130q-22 -35 -52 -62.5t-72 -47t-97 -30t-126 -10.5q-86 0 -151.5 22.5t-109 60.5t-65.5 89.5t-22 109.5zM344 1352q0 4 15 13t38.5 18.5t53 17t59.5 7.5 q34 0 64.5 -10t47.5 -33l236 -317h-139q-10 9 -41.5 33t-73 54.5t-87 65t-84 65.5t-63.5 54t-26 32zM357 282q0 -37 13 -59.5t35.5 -43t54 -31.5t67.5 -11q49 0 89 13t68.5 38.5t44 55.5t15.5 77v103q-42 12 -83 17t-83 5q-105 0 -163 -43t-58 -121z" />
<glyph unicode="&#xe1;" horiz-adv-x="1203" d="M63 259q0 67 29.5 121t85 91.5t134.5 58t179 20.5q65 0 130 -7.5t123 -22.5v115q0 76 -52.5 121t-162.5 45q-182 0 -217 -145l-165 15l6 200q15 7 49 18t86 21.5t120 18t151 7.5q130 0 223 -18.5t152.5 -58.5t87.5 -103.5t28 -154.5v-329q0 -41 2.5 -64t11 -33.5 t23.5 -12.5t41 -2h48v-160h-35t-59 0.5t-61.5 0.5h-41.5q-28 0 -51 -0.5t-44.5 -1t-44.5 -1t-51 -1.5l-30 130q-22 -35 -52 -62.5t-72 -47t-97 -30t-126 -10.5q-86 0 -151.5 22.5t-109 60.5t-65.5 89.5t-22 109.5zM346 1048l216 290q23 31 58 49t73 18q31 0 61 -8.5 t53 -19.5t34.5 -22.5t5.5 -17.5l-362 -289h-139zM357 282q0 -37 13 -59.5t35.5 -43t54 -31.5t67.5 -11q49 0 89 13t68.5 38.5t44 55.5t15.5 77v103q-42 12 -83 17t-83 5q-105 0 -163 -43t-58 -121z" />
<glyph unicode="&#xe2;" horiz-adv-x="1203" d="M63 259q0 67 29.5 121t85 91.5t134.5 58t179 20.5q65 0 130 -7.5t123 -22.5v115q0 76 -52.5 121t-162.5 45q-182 0 -217 -145l-165 15l6 200q15 7 49 18t86 21.5t120 18t151 7.5q130 0 223 -18.5t152.5 -58.5t87.5 -103.5t28 -154.5v-329q0 -41 2.5 -64t11 -33.5 t23.5 -12.5t41 -2h48v-160h-35t-59 0.5t-61.5 0.5h-41.5q-28 0 -51 -0.5t-44.5 -1t-44.5 -1t-51 -1.5l-30 130q-22 -35 -52 -62.5t-72 -47t-97 -30t-126 -10.5q-86 0 -151.5 22.5t-109 60.5t-65.5 89.5t-22 109.5zM253 1053l219 337h256l221 -337h-154l-194 165l-196 -165 h-152zM357 282q0 -37 13 -59.5t35.5 -43t54 -31.5t67.5 -11q49 0 89 13t68.5 38.5t44 55.5t15.5 77v103q-42 12 -83 17t-83 5q-105 0 -163 -43t-58 -121z" />
<glyph unicode="&#xe3;" horiz-adv-x="1203" d="M63 259q0 67 29.5 121t85 91.5t134.5 58t179 20.5q65 0 130 -7.5t123 -22.5v115q0 76 -52.5 121t-162.5 45q-182 0 -217 -145l-165 15l6 200q15 7 49 18t86 21.5t120 18t151 7.5q130 0 223 -18.5t152.5 -58.5t87.5 -103.5t28 -154.5v-329q0 -41 2.5 -64t11 -33.5 t23.5 -12.5t41 -2h48v-160h-35t-59 0.5t-61.5 0.5h-41.5q-28 0 -51 -0.5t-44.5 -1t-44.5 -1t-51 -1.5l-30 130q-22 -35 -52 -62.5t-72 -47t-97 -30t-126 -10.5q-86 0 -151.5 22.5t-109 60.5t-65.5 89.5t-22 109.5zM252 1081q20 128 77 193t152 65q34 0 67 -10t65 -22t63 -22 t62 -10q37 0 58.5 19.5t37.5 64.5h117q-15 -121 -73.5 -189t-155.5 -68q-35 0 -68 10t-64.5 22.5t-61.5 22.5t-58 10q-38 0 -62 -23t-38 -63h-118zM357 282q0 -37 13 -59.5t35.5 -43t54 -31.5t67.5 -11q49 0 89 13t68.5 38.5t44 55.5t15.5 77v103q-42 12 -83 17t-83 5 q-105 0 -163 -43t-58 -121z" />
<glyph unicode="&#xe4;" horiz-adv-x="1203" d="M63 259q0 67 29.5 121t85 91.5t134.5 58t179 20.5q65 0 130 -7.5t123 -22.5v115q0 76 -52.5 121t-162.5 45q-182 0 -217 -145l-165 15l6 200q15 7 49 18t86 21.5t120 18t151 7.5q130 0 223 -18.5t152.5 -58.5t87.5 -103.5t28 -154.5v-329q0 -41 2.5 -64t11 -33.5 t23.5 -12.5t41 -2h48v-160h-35t-59 0.5t-61.5 0.5h-41.5q-28 0 -51 -0.5t-44.5 -1t-44.5 -1t-51 -1.5l-30 130q-22 -35 -52 -62.5t-72 -47t-97 -30t-126 -10.5q-86 0 -151.5 22.5t-109 60.5t-65.5 89.5t-22 109.5zM242 1231q0 27 10 50.5t28 41t42 27t52 9.5q27 0 51 -9.5 t41 -26.5t27 -40.5t10 -51.5q0 -57 -36.5 -93t-93.5 -36q-29 0 -53 9.5t-41 27t-27 41t-10 51.5zM357 282q0 -37 13 -59.5t35.5 -43t54 -31.5t67.5 -11q49 0 89 13t68.5 38.5t44 55.5t15.5 77v103q-42 12 -83 17t-83 5q-105 0 -163 -43t-58 -121zM699 1231q0 27 10 50.5 t27.5 40.5t41.5 27t52 10t51.5 -9.5t40.5 -27t27 -41t10 -50.5q0 -28 -9.5 -51.5t-27 -41t-41 -27t-51.5 -9.5q-29 0 -53 10t-41 27t-27 41t-10 51z" />
<glyph unicode="&#xe5;" horiz-adv-x="1203" d="M63 259q0 67 29.5 121t85 91.5t134.5 58t179 20.5q65 0 130 -7.5t123 -22.5v115q0 76 -52.5 121t-162.5 45q-182 0 -217 -145l-165 15l6 200q15 7 49 18t86 21.5t120 18t151 7.5q130 0 223 -18.5t152.5 -58.5t87.5 -103.5t28 -154.5v-329q0 -41 2.5 -64t11 -33.5 t23.5 -12.5t41 -2h48v-160h-35t-59 0.5t-61.5 0.5h-41.5q-28 0 -51 -0.5t-44.5 -1t-44.5 -1t-51 -1.5l-30 130q-22 -35 -52 -62.5t-72 -47t-97 -30t-126 -10.5q-86 0 -151.5 22.5t-109 60.5t-65.5 89.5t-22 109.5zM357 282q0 -37 13 -59.5t35.5 -43t54 -31.5t67.5 -11 q49 0 89 13t68.5 38.5t44 55.5t15.5 77v103q-42 12 -83 17t-83 5q-105 0 -163 -43t-58 -121zM363 1256q0 47 18.5 88t50.5 71t75.5 47.5t93.5 17.5t93.5 -18t75.5 -48.5t50.5 -71t18.5 -86.5q0 -48 -19 -89.5t-51.5 -72t-75.5 -48t-92 -17.5q-50 0 -93.5 18t-75.5 48.5 t-50.5 72t-18.5 88.5zM476 1256q0 -26 9.5 -49t26.5 -39.5t40 -26t49 -9.5t48.5 9.5t39.5 26.5t26.5 39.5t9.5 48.5q0 25 -10 47.5t-26.5 39t-39.5 26t-48 9.5q-26 0 -49 -10t-40 -26.5t-26.5 -38.5t-9.5 -47z" />
<glyph unicode="&#xe6;" horiz-adv-x="1865" d="M69 256q0 66 30 119t86 90.5t134.5 58t176.5 20.5q63 0 129 -7t127 -20v101q-2 49 -13.5 84.5t-36.5 58.5t-65 34.5t-98 11.5q-103 0 -155.5 -36t-61.5 -114l-201 13l16 199q177 67 432 67q128 0 222.5 -31t148.5 -94q60 57 149.5 91t190.5 34q126 0 221.5 -34.5 t159.5 -100.5t96.5 -161.5t32.5 -216.5l-60 -9h-668q2 -142 66.5 -221t190.5 -79q162 0 216 157l236 -19q-39 -137 -161 -209.5t-312 -72.5q-300 0 -446 182q-83 -96 -188 -137.5t-238 -41.5q-80 0 -146 20t-113 57t-72.5 89t-25.5 117zM363 268q0 -35 12.5 -65t35 -51.5 t53.5 -34t69 -13.5q106 0 162.5 55.5t56.5 175.5v78q-42 9 -87.5 15t-88.5 6q-99 0 -156 -43t-57 -123zM1062 516h438v18t-1 18q-8 115 -61 179t-150 64q-104 0 -160.5 -73t-65.5 -206z" />
<glyph unicode="&#xe7;" horiz-adv-x="1129" d="M81 448q0 105 37.5 193t101.5 151.5t149.5 99t182.5 35.5q75 0 146.5 -20.5t128.5 -71.5l12 75q18 -1 41.5 -2t48 -2t48.5 -2.5t44 -3.5v-339h-174q-14 111 -69.5 163.5t-144.5 52.5q-57 0 -101.5 -23.5t-75 -66.5t-46 -103.5t-15.5 -133.5q0 -75 16.5 -129.5t48 -96.5 t76.5 -64.5t103 -22.5q86 0 137 49t66 129l213 -27q-14 -76 -52 -135t-96.5 -96t-136 -58.5t-170.5 -21.5q-118 0 -214 34t-163.5 93t-104.5 147t-37 197zM325 -384l26 91q38 -16 77.5 -24.5t71.5 -8.5q104 0 104 79q0 36 -25.5 52.5t-68.5 17.5q-8 0 -15.5 -1t-15.5 -3 l10 178h96l-3 -74q4 1 11 1h13q45 0 81.5 -13t62.5 -36t40 -56t14 -72q0 -43 -18 -76.5t-51 -56.5t-80 -35t-104 -13q-45 0 -102 10.5t-124 39.5z" />
<glyph unicode="&#xe8;" horiz-adv-x="1198" d="M79 451q0 111 37.5 201t106.5 153t166 97t216 34q115 0 210 -32.5t163 -97t106 -160.5t38 -223l-54 -8h-680q1 -143 70 -210.5t189 -67.5q85 0 143.5 39t83.5 94l228 -18q-40 -137 -164.5 -206t-313.5 -69q-138 0 -240 36t-170 97t-101.5 149t-33.5 192zM342 1352 q0 4 15 13t38.5 18.5t53 17t59.5 7.5q34 0 64.5 -10t47.5 -33l236 -317h-139q-10 9 -41.5 33t-73 54.5t-87 65t-84 65.5t-63.5 54t-26 32zM391 546h445v-1v7q0 3 -0.5 6.5t-0.5 7.5q-9 106 -66 164.5t-150 58.5q-103 0 -161.5 -65t-66.5 -178z" />
<glyph unicode="&#xe9;" horiz-adv-x="1198" d="M79 451q0 111 37.5 201t106.5 153t166 97t216 34q115 0 210 -32.5t163 -97t106 -160.5t38 -223l-54 -8h-680q1 -143 70 -210.5t189 -67.5q85 0 143.5 39t83.5 94l228 -18q-40 -137 -164.5 -206t-313.5 -69q-138 0 -240 36t-170 97t-101.5 149t-33.5 192zM344 1048 l216 290q23 31 58 49t73 18q31 0 61 -8.5t53 -19.5t34.5 -22.5t5.5 -17.5l-362 -289h-139zM391 546h445v-1v7q0 3 -0.5 6.5t-0.5 7.5q-9 106 -66 164.5t-150 58.5q-103 0 -161.5 -65t-66.5 -178z" />
<glyph unicode="&#xea;" horiz-adv-x="1198" d="M79 451q0 111 37.5 201t106.5 153t166 97t216 34q115 0 210 -32.5t163 -97t106 -160.5t38 -223l-54 -8h-680q1 -143 70 -210.5t189 -67.5q85 0 143.5 39t83.5 94l228 -18q-40 -137 -164.5 -206t-313.5 -69q-138 0 -240 36t-170 97t-101.5 149t-33.5 192zM251 1053 l219 337h256l221 -337h-154l-194 165l-196 -165h-152zM391 546h445v-1v7q0 3 -0.5 6.5t-0.5 7.5q-9 106 -66 164.5t-150 58.5q-103 0 -161.5 -65t-66.5 -178z" />
<glyph unicode="&#xeb;" horiz-adv-x="1198" d="M79 451q0 111 37.5 201t106.5 153t166 97t216 34q115 0 210 -32.5t163 -97t106 -160.5t38 -223l-54 -8h-680q1 -143 70 -210.5t189 -67.5q85 0 143.5 39t83.5 94l228 -18q-40 -137 -164.5 -206t-313.5 -69q-138 0 -240 36t-170 97t-101.5 149t-33.5 192zM240 1231 q0 27 10 50.5t28 41t42 27t52 9.5q27 0 51 -9.5t41 -26.5t27 -40.5t10 -51.5q0 -57 -36.5 -93t-93.5 -36q-29 0 -53 9.5t-41 27t-27 41t-10 51.5zM391 546h445v-1v7q0 3 -0.5 6.5t-0.5 7.5q-9 106 -66 164.5t-150 58.5q-103 0 -161.5 -65t-66.5 -178zM697 1231q0 27 10 50.5 t27.5 40.5t41.5 27t52 10t51.5 -9.5t40.5 -27t27 -41t10 -50.5q0 -28 -9.5 -51.5t-27 -41t-41 -27t-51.5 -9.5q-29 0 -53 10t-41 27t-27 41t-10 51z" />
<glyph unicode="&#xec;" horiz-adv-x="655" d="M56 0v162q42 0 66.5 2.5t37.5 12t17 27.5t4 50v438q0 21 -7 32t-22 16.5t-37.5 6.5t-53.5 1q0 41 0.5 80t0.5 80q42 0 80 -0.5t74 -0.5q65 0 132.5 1t137.5 4v-658q0 -31 4.5 -49t17 -27.5t35.5 -12.5t60 -3v-162q-34 0 -75.5 0.5t-84 0.5t-82 0.5t-69.5 0.5 q-36 0 -67 -0.5t-59 -0.5t-55 -0.5t-55 -0.5zM74 1352q0 4 15 13t38.5 18.5t53 17t59.5 7.5q34 0 64.5 -10t47.5 -33l236 -317h-139q-10 9 -41.5 33t-73 54.5t-87 65t-84 65.5t-63.5 54t-26 32z" />
<glyph unicode="&#xed;" horiz-adv-x="655" d="M56 0v162q42 0 66.5 2.5t37.5 12t17 27.5t4 50v438q0 21 -7 32t-22 16.5t-37.5 6.5t-53.5 1q0 41 0.5 80t0.5 80q42 0 80 -0.5t74 -0.5q65 0 132.5 1t137.5 4v-658q0 -31 4.5 -49t17 -27.5t35.5 -12.5t60 -3v-162q-34 0 -75.5 0.5t-84 0.5t-82 0.5t-69.5 0.5 q-36 0 -67 -0.5t-59 -0.5t-55 -0.5t-55 -0.5zM77 1048l216 290q23 31 58 49t73 18q31 0 61 -8.5t53 -19.5t34.5 -22.5t5.5 -17.5l-362 -289h-139z" />
<glyph unicode="&#xee;" horiz-adv-x="655" d="M-16 1053l219 337h256l221 -337h-154l-194 165l-196 -165h-152zM56 0v162q42 0 66.5 2.5t37.5 12t17 27.5t4 50v438q0 21 -7 32t-22 16.5t-37.5 6.5t-53.5 1q0 41 0.5 80t0.5 80q42 0 80 -0.5t74 -0.5q65 0 132.5 1t137.5 4v-658q0 -31 4.5 -49t17 -27.5t35.5 -12.5 t60 -3v-162q-34 0 -75.5 0.5t-84 0.5t-82 0.5t-69.5 0.5q-36 0 -67 -0.5t-59 -0.5t-55 -0.5t-55 -0.5z" />
<glyph unicode="&#xef;" horiz-adv-x="655" d="M-27 1231q0 27 10 50.5t28 41t42 27t52 9.5q27 0 51 -9.5t41 -26.5t27 -40.5t10 -51.5q0 -57 -36.5 -93t-93.5 -36q-29 0 -53 9.5t-41 27t-27 41t-10 51.5zM56 0v162q42 0 66.5 2.5t37.5 12t17 27.5t4 50v438q0 21 -7 32t-22 16.5t-37.5 6.5t-53.5 1q0 41 0.5 80t0.5 80 q42 0 80 -0.5t74 -0.5q65 0 132.5 1t137.5 4v-658q0 -31 4.5 -49t17 -27.5t35.5 -12.5t60 -3v-162q-34 0 -75.5 0.5t-84 0.5t-82 0.5t-69.5 0.5q-36 0 -67 -0.5t-59 -0.5t-55 -0.5t-55 -0.5zM430 1231q0 27 10 50.5t27.5 40.5t41.5 27t52 10t51.5 -9.5t40.5 -27t27 -41 t10 -50.5q0 -28 -9.5 -51.5t-27 -41t-41 -27t-51.5 -9.5q-29 0 -53 10t-41 27t-27 41t-10 51z" />
<glyph unicode="&#xf0;" horiz-adv-x="1267" d="M83 458q0 106 36 194t101 151t155 98t197 35q55 0 104.5 -14t87.5 -37l2 2q-22 55 -56.5 109t-82.5 101l-265 -106l-75 70l272 105q-72 66 -161 131l210 39q48 -17 91 -41.5t78 -50.5l236 93l74 -70l-234 -89q67 -67 126 -142t103.5 -156.5t70.5 -168.5t26 -177 q0 -138 -36 -243t-105 -176.5t-170 -108t-231 -36.5q-125 0 -227.5 33.5t-175 96.5t-112 153.5t-39.5 204.5zM396 450q0 -72 16 -130t46 -98.5t73.5 -62.5t99.5 -22q113 0 174.5 85t61.5 240q0 70 -15.5 127t-45 97.5t-73 62.5t-100.5 22q-115 0 -176 -84.5t-61 -236.5z" />
<glyph unicode="&#xf1;" horiz-adv-x="1341" d="M41 118v29v15q43 0 70 2t42 10t20.5 24t5.5 45v454q0 19 -8 29.5t-24.5 15t-41.5 5.5t-58 1v160q43 0 82 -0.5t75 -0.5q69 0 134 1t137 4v-150q28 33 65 62.5t82 52t98 36t113 15.5q85 0 149.5 -21t108 -66t65.5 -116t22 -170v-333q0 -25 8 -37t23.5 -17t38.5 -5.5 t53 -0.5v-162h-60t-60 0.5t-66 1t-77 0.5q-78 0 -147.5 -1t-138.5 -1v162q45 0 69.5 2.5t35.5 10.5t13 23t2 40v274q0 55 -8 97t-27 70t-51 42.5t-79 14.5q-40 0 -72.5 -8.5t-58 -22t-44.5 -31.5t-32 -36q-11 -32 -13.5 -70.5t-2.5 -83.5v-246q0 -29 8 -44t25 -22t44 -8.5 t65 -1.5v-162h-71t-70.5 0.5t-77 1t-89.5 0.5q-83 0 -147.5 -1t-128.5 -1v14.5v29.5t-0.5 37t-0.5 37zM320 1081q20 128 77 193t152 65q34 0 67 -10t65 -22t63 -22t62 -10q37 0 58.5 19.5t37.5 64.5h117q-15 -121 -73.5 -189t-155.5 -68q-35 0 -68 10t-64.5 22.5t-61.5 22.5 t-58 10q-38 0 -62 -23t-38 -63h-118z" />
<glyph unicode="&#xf2;" horiz-adv-x="1256" d="M78 453q0 114 42 204t116 152t174.5 94.5t217.5 32.5q111 0 211 -31t175 -92t119 -151.5t44 -208.5q0 -115 -43 -205t-117 -148t-174 -90.5t-215 -32.5q-116 0 -216 32t-174.5 90t-117 148t-42.5 206zM371 1352q0 4 15 13t38.5 18.5t53 17t59.5 7.5q34 0 64.5 -10 t47.5 -33l236 -317h-139q-10 9 -41.5 33t-73 54.5t-87 65t-84 65.5t-63.5 54t-26 32zM391 454q0 -150 61 -233.5t174 -83.5q56 0 100 22t75 63t47 101t16 135q0 73 -16 131t-46 98.5t-74 62t-99 21.5q-114 0 -176 -84t-62 -233z" />
<glyph unicode="&#xf3;" horiz-adv-x="1256" d="M78 453q0 114 42 204t116 152t174.5 94.5t217.5 32.5q111 0 211 -31t175 -92t119 -151.5t44 -208.5q0 -115 -43 -205t-117 -148t-174 -90.5t-215 -32.5q-116 0 -216 32t-174.5 90t-117 148t-42.5 206zM373 1048l216 290q23 31 58 49t73 18q31 0 61 -8.5t53 -19.5 t34.5 -22.5t5.5 -17.5l-362 -289h-139zM391 454q0 -150 61 -233.5t174 -83.5q56 0 100 22t75 63t47 101t16 135q0 73 -16 131t-46 98.5t-74 62t-99 21.5q-114 0 -176 -84t-62 -233z" />
<glyph unicode="&#xf4;" horiz-adv-x="1256" d="M78 453q0 114 42 204t116 152t174.5 94.5t217.5 32.5q111 0 211 -31t175 -92t119 -151.5t44 -208.5q0 -115 -43 -205t-117 -148t-174 -90.5t-215 -32.5q-116 0 -216 32t-174.5 90t-117 148t-42.5 206zM280 1053l219 337h256l221 -337h-154l-194 165l-196 -165h-152z M391 454q0 -150 61 -233.5t174 -83.5q56 0 100 22t75 63t47 101t16 135q0 73 -16 131t-46 98.5t-74 62t-99 21.5q-114 0 -176 -84t-62 -233z" />
<glyph unicode="&#xf5;" horiz-adv-x="1256" d="M78 453q0 114 42 204t116 152t174.5 94.5t217.5 32.5q111 0 211 -31t175 -92t119 -151.5t44 -208.5q0 -115 -43 -205t-117 -148t-174 -90.5t-215 -32.5q-116 0 -216 32t-174.5 90t-117 148t-42.5 206zM278 1081q20 128 77 193t152 65q34 0 67 -10t65 -22t63 -22t62 -10 q37 0 58.5 19.5t37.5 64.5h117q-15 -121 -73.5 -189t-155.5 -68q-35 0 -68 10t-64.5 22.5t-61.5 22.5t-58 10q-38 0 -62 -23t-38 -63h-118zM391 454q0 -150 61 -233.5t174 -83.5q56 0 100 22t75 63t47 101t16 135q0 73 -16 131t-46 98.5t-74 62t-99 21.5q-114 0 -176 -84 t-62 -233z" />
<glyph unicode="&#xf6;" horiz-adv-x="1256" d="M78 453q0 114 42 204t116 152t174.5 94.5t217.5 32.5q111 0 211 -31t175 -92t119 -151.5t44 -208.5q0 -115 -43 -205t-117 -148t-174 -90.5t-215 -32.5q-116 0 -216 32t-174.5 90t-117 148t-42.5 206zM269 1231q0 27 10 50.5t28 41t42 27t52 9.5q27 0 51 -9.5t41 -26.5 t27 -40.5t10 -51.5q0 -57 -36.5 -93t-93.5 -36q-29 0 -53 9.5t-41 27t-27 41t-10 51.5zM391 454q0 -150 61 -233.5t174 -83.5q56 0 100 22t75 63t47 101t16 135q0 73 -16 131t-46 98.5t-74 62t-99 21.5q-114 0 -176 -84t-62 -233zM726 1231q0 27 10 50.5t27.5 40.5t41.5 27 t52 10t51.5 -9.5t40.5 -27t27 -41t10 -50.5q0 -28 -9.5 -51.5t-27 -41t-41 -27t-51.5 -9.5q-29 0 -53 10t-41 27t-27 41t-10 51z" />
<glyph unicode="&#xf7;" horiz-adv-x="1537" d="M187 541v196h1161v-196h-1161zM631 248q0 29 11 54t30 43.5t44 29t53 10.5t53 -11t43.5 -30t29 -44t10.5 -52q0 -28 -10.5 -52.5t-29 -43t-43.5 -29t-53 -10.5q-29 0 -54.5 10.5t-44 29t-29 43t-10.5 52.5zM631 1027q0 28 11 53t29.5 43.5t43.5 29.5t54 11t54 -11t43 -30 t28.5 -43.5t10.5 -52.5q0 -29 -10.5 -53.5t-29 -42.5t-43.5 -28.5t-53 -10.5q-29 0 -54.5 10.5t-44 29t-29 43t-10.5 52.5z" />
<glyph unicode="&#xf8;" horiz-adv-x="1256" d="M79 455q0 108 38.5 197t109.5 152t172 97.5t227 34.5q83 0 155 -16t141 -48l114 133l106 -31l-130 -159q80 -66 122.5 -156t42.5 -206q0 -110 -39 -199t-110 -152t-172 -97.5t-224 -34.5q-164 0 -299 64l-116 -140l-107 32l131 164q-80 67 -121 158.5t-41 206.5zM389 463 q0 -48 7 -90t24 -87l361 432q-29 29 -67.5 43t-83.5 14q-56 0 -101 -21t-76 -61.5t-47.5 -98.5t-16.5 -131zM475 188q29 -28 68.5 -41t83.5 -13q57 0 101.5 23.5t75.5 67.5t47 106.5t16 141.5q-3 44 -10.5 80t-21.5 68z" />
<glyph unicode="&#xf9;" horiz-adv-x="1336" d="M43 747v160h42.5t53.5 -0.5t48.5 -0.5h28.5q66 1 129.5 2t129.5 3v-522q0 -55 7 -98t24.5 -72t47.5 -44.5t76 -15.5q85 0 138.5 27t79.5 70q11 30 12.5 65.5t1.5 74.5v259q0 35 -5.5 53.5t-20.5 27t-41.5 10t-69.5 1.5v160q48 -1 95 -1h107q62 1 121 2t119 3v-688 q0 -20 5.5 -32.5t19.5 -19.5t38 -9t61 -2v-160q-47 0 -83.5 0.5t-74.5 0.5q-66 -1 -131 -1.5t-131 -2.5v140q-67 -80 -169 -118.5t-225 -38.5q-85 0 -144 27.5t-95.5 82.5t-52.5 140t-16 199v245q0 28 -5.5 43t-19.5 21.5t-38.5 7.5t-62.5 1zM411 1352q0 4 15 13t38.5 18.5 t53 17t59.5 7.5q34 0 64.5 -10t47.5 -33l236 -317h-139q-10 9 -41.5 33t-73 54.5t-87 65t-84 65.5t-63.5 54t-26 32z" />
<glyph unicode="&#xfa;" horiz-adv-x="1336" d="M43 747v160h42.5t53.5 -0.5t48.5 -0.5h28.5q66 1 129.5 2t129.5 3v-522q0 -55 7 -98t24.5 -72t47.5 -44.5t76 -15.5q85 0 138.5 27t79.5 70q11 30 12.5 65.5t1.5 74.5v259q0 35 -5.5 53.5t-20.5 27t-41.5 10t-69.5 1.5v160q48 -1 95 -1h107q62 1 121 2t119 3v-688 q0 -20 5.5 -32.5t19.5 -19.5t38 -9t61 -2v-160q-47 0 -83.5 0.5t-74.5 0.5q-66 -1 -131 -1.5t-131 -2.5v140q-67 -80 -169 -118.5t-225 -38.5q-85 0 -144 27.5t-95.5 82.5t-52.5 140t-16 199v245q0 28 -5.5 43t-19.5 21.5t-38.5 7.5t-62.5 1zM413 1048l216 290q23 31 58 49 t73 18q31 0 61 -8.5t53 -19.5t34.5 -22.5t5.5 -17.5l-362 -289h-139z" />
<glyph unicode="&#xfb;" horiz-adv-x="1336" d="M43 747v160h42.5t53.5 -0.5t48.5 -0.5h28.5q66 1 129.5 2t129.5 3v-522q0 -55 7 -98t24.5 -72t47.5 -44.5t76 -15.5q85 0 138.5 27t79.5 70q11 30 12.5 65.5t1.5 74.5v259q0 35 -5.5 53.5t-20.5 27t-41.5 10t-69.5 1.5v160q48 -1 95 -1h107q62 1 121 2t119 3v-688 q0 -20 5.5 -32.5t19.5 -19.5t38 -9t61 -2v-160q-47 0 -83.5 0.5t-74.5 0.5q-66 -1 -131 -1.5t-131 -2.5v140q-67 -80 -169 -118.5t-225 -38.5q-85 0 -144 27.5t-95.5 82.5t-52.5 140t-16 199v245q0 28 -5.5 43t-19.5 21.5t-38.5 7.5t-62.5 1zM320 1053l219 337h256l221 -337 h-154l-194 165l-196 -165h-152z" />
<glyph unicode="&#xfc;" horiz-adv-x="1336" d="M43 747v160h42.5t53.5 -0.5t48.5 -0.5h28.5q66 1 129.5 2t129.5 3v-522q0 -55 7 -98t24.5 -72t47.5 -44.5t76 -15.5q85 0 138.5 27t79.5 70q11 30 12.5 65.5t1.5 74.5v259q0 35 -5.5 53.5t-20.5 27t-41.5 10t-69.5 1.5v160q48 -1 95 -1h107q62 1 121 2t119 3v-688 q0 -20 5.5 -32.5t19.5 -19.5t38 -9t61 -2v-160q-47 0 -83.5 0.5t-74.5 0.5q-66 -1 -131 -1.5t-131 -2.5v140q-67 -80 -169 -118.5t-225 -38.5q-85 0 -144 27.5t-95.5 82.5t-52.5 140t-16 199v245q0 28 -5.5 43t-19.5 21.5t-38.5 7.5t-62.5 1zM309 1231q0 27 10 50.5t28 41 t42 27t52 9.5q27 0 51 -9.5t41 -26.5t27 -40.5t10 -51.5q0 -57 -36.5 -93t-93.5 -36q-29 0 -53 9.5t-41 27t-27 41t-10 51.5zM766 1231q0 27 10 50.5t27.5 40.5t41.5 27t52 10t51.5 -9.5t40.5 -27t27 -41t10 -50.5q0 -28 -9.5 -51.5t-27 -41t-41 -27t-51.5 -9.5 q-29 0 -53 10t-41 27t-27 41t-10 51z" />
<glyph unicode="&#xfd;" horiz-adv-x="1140" d="M-16 732v176q74 0 137.5 -1t113.5 -1q66 0 138 0.5t164 1.5v-162q-16 -2 -32.5 -1.5t-30.5 -0.5q-29 -3 -45 -12t-20 -31q3 -15 9 -32t14 -34.5t16.5 -34.5t14.5 -31l153 -350q12 29 31.5 76t43 103.5t48.5 119t48 121.5q16 39 21 66q-6 23 -31.5 32t-89.5 9v162 q67 -1 118 -1.5t103 -0.5q56 0 115 0.5t132 1.5v-28.5v-53t0.5 -53t1.5 -27.5q-42 -1 -66 -6t-39 -17t-26.5 -33.5t-29.5 -54.5q-12 -28 -39.5 -88t-63 -136t-74.5 -160.5t-74.5 -161t-63 -136.5t-39.5 -88q-37 -79 -70.5 -132t-71.5 -85.5t-85 -46.5t-110 -14h-49t-49 -1 v169h38.5t32.5 1q39 1 64.5 10t46 30.5t39.5 58t45 93.5q-87 188 -157 338q-30 64 -58.5 125.5t-51.5 111t-37.5 81t-16.5 35.5q-15 32 -26 51t-27 29t-42.5 12.5t-72.5 0.5zM315 1048l216 290q23 31 58 49t73 18q31 0 61 -8.5t53 -19.5t34.5 -22.5t5.5 -17.5l-362 -289 h-139z" />
<glyph unicode="&#xfe;" horiz-adv-x="1330" d="M31 -253q32 1 60.5 4.5t52.5 6.5q4 6 7 25.5t4.5 44.5t2 51t0.5 45v1063q0 53 -5.5 95t-20.5 57q-16 8 -39.5 8.5t-55.5 0.5v161q14 -1 28.5 -1h29.5h97q66 0 133.5 1.5t138.5 3.5l1 -510q58 59 140 93t180 34q102 0 186.5 -34t145 -96t94.5 -149t34 -192 q0 -111 -33.5 -200.5t-95 -152.5t-147.5 -97t-190 -34q-96 0 -175.5 31t-138.5 93l-1 -247q0 -32 2.5 -53t10.5 -35q10 -10 27.5 -13.5t48.5 -3.5h54v-161q-32 0 -73.5 0.5t-85.5 0.5h-87.5h-78.5h-61.5h-69.5t-66.5 -0.5t-53.5 -0.5v161zM454 455q0 -72 16 -129t47 -97 t75 -61t101 -21q55 0 99.5 19.5t76 58.5t49 97t17.5 135q0 140 -63 218.5t-179 78.5q-56 0 -100.5 -20.5t-75 -59t-47 -94t-16.5 -125.5z" />
<glyph unicode="&#xff;" horiz-adv-x="1140" d="M-16 732v176q74 0 137.5 -1t113.5 -1q66 0 138 0.5t164 1.5v-162q-16 -2 -32.5 -1.5t-30.5 -0.5q-29 -3 -45 -12t-20 -31q3 -15 9 -32t14 -34.5t16.5 -34.5t14.5 -31l153 -350q12 29 31.5 76t43 103.5t48.5 119t48 121.5q16 39 21 66q-6 23 -31.5 32t-89.5 9v162 q67 -1 118 -1.5t103 -0.5q56 0 115 0.5t132 1.5v-28.5v-53t0.5 -53t1.5 -27.5q-42 -1 -66 -6t-39 -17t-26.5 -33.5t-29.5 -54.5q-12 -28 -39.5 -88t-63 -136t-74.5 -160.5t-74.5 -161t-63 -136.5t-39.5 -88q-37 -79 -70.5 -132t-71.5 -85.5t-85 -46.5t-110 -14h-49t-49 -1 v169h38.5t32.5 1q39 1 64.5 10t46 30.5t39.5 58t45 93.5q-87 188 -157 338q-30 64 -58.5 125.5t-51.5 111t-37.5 81t-16.5 35.5q-15 32 -26 51t-27 29t-42.5 12.5t-72.5 0.5zM211 1231q0 27 10 50.5t28 41t42 27t52 9.5q27 0 51 -9.5t41 -26.5t27 -40.5t10 -51.5 q0 -57 -36.5 -93t-93.5 -36q-29 0 -53 9.5t-41 27t-27 41t-10 51.5zM668 1231q0 27 10 50.5t27.5 40.5t41.5 27t52 10t51.5 -9.5t40.5 -27t27 -41t10 -50.5q0 -28 -9.5 -51.5t-27 -41t-41 -27t-51.5 -9.5q-29 0 -53 10t-41 27t-27 41t-10 51z" />
<glyph unicode="&#x152;" horiz-adv-x="2148" d="M101 656q0 165 49 287.5t144 203.5t234.5 121t321.5 40h1186v-366h-196v51q0 41 -2.5 64.5t-8.5 35.5t-16 15.5t-25 3.5h-428v-362h257q9 0 16.5 1.5t13.5 10t9.5 27t3.5 52.5h81v-354h-81q0 37 -3 57t-8.5 29t-13 10.5t-15.5 1.5h-260v-388h434q17 0 27 6t16 25.5t8 57 t2 100.5h194v-386h-1086q-119 0 -228.5 13t-204.5 43t-172.5 79t-133 122t-85.5 171.5t-30 227.5zM436 649q0 -125 30.5 -211.5t90.5 -140t148 -77.5t202 -24h127v916h-143q-122 0 -208.5 -28t-141 -85.5t-80 -144.5t-25.5 -205z" />
<glyph unicode="&#x153;" horiz-adv-x="1939" d="M81 458q0 117 39.5 206.5t110 149.5t168.5 91t215 31q126 0 226.5 -38.5t157.5 -112.5q63 75 160.5 113t212.5 38q211 0 332.5 -109t157.5 -335q3 -20 4.5 -39.5t2.5 -37.5h-720v-30q5 -129 68.5 -199.5t179.5 -70.5q161 0 218 154l233 -20q-20 -63 -58.5 -114.5t-97 -88 t-137 -56.5t-177.5 -20q-125 0 -220.5 34t-162.5 106q-26 -33 -65.5 -59t-89.5 -44t-108 -27.5t-120 -9.5q-142 0 -242.5 40.5t-164.5 108t-93.5 156t-29.5 183.5zM393 456q0 -152 56.5 -232.5t168.5 -80.5q52 0 93.5 18.5t70.5 56.5t44.5 96.5t15.5 138.5q0 150 -57 231.5 t-165 81.5q-107 0 -167 -78.5t-60 -231.5zM1146 517h432q-2 63 -15.5 114.5t-39.5 87.5t-64 56t-89 20q-50 0 -89.5 -19.5t-68 -55.5t-45.5 -87.5t-21 -115.5z" />
<glyph unicode="&#x178;" horiz-adv-x="1320" d="M16 1308q7 0 29 -0.5t50 -1l56 -1t46 -0.5q46 0 89 0.5t90.5 1t101.5 1t121 0.5v-178h-31q-49 0 -70 -7.5t-21 -27.5q3 -6 7.5 -15.5t10 -20.5t10.5 -22t10 -18q6 -12 20.5 -37.5t33 -57.5t39 -67t39 -67t32.5 -57.5t20 -37.5l197 327q15 25 25 44t12 33q-4 16 -24 22 t-62 8q-4 0 -15 0.5t-16 0.5v178q59 -1 112 -1q22 0 45.5 -0.5t44.5 -0.5h38h28h99.5t119.5 2v-178q-33 0 -53 -3.5t-35.5 -13t-29.5 -28t-34 -48.5q-25 -35 -55 -80t-62 -93.5t-64 -98t-60.5 -94t-52 -81t-38.5 -58.5v-262q0 -23 2 -40t12 -28.5t29.5 -17.5t55.5 -6h49 v-178h-72.5t-73.5 0.5t-80 1t-92 0.5q-30 0 -72.5 -0.5t-86 -0.5t-81.5 -0.5t-57 -0.5v178h48q39 0 59 9.5t29 23.5t9.5 29.5t0.5 27.5v266q-15 22 -39.5 60.5t-54 85t-62 97.5t-62 97.5t-54 85t-38.5 61.5q-24 37 -38.5 58t-31 32.5t-39.5 14.5t-62 4q0 44 -0.5 88.5 t-0.5 89.5zM302 1631q0 27 10 50.5t28 41t42 27t52 9.5q27 0 51 -9.5t41 -26.5t27 -40.5t10 -51.5q0 -57 -36.5 -93t-93.5 -36q-29 0 -53 9.5t-41 27t-27 41t-10 51.5zM759 1631q0 27 10 50.5t27.5 40.5t41.5 27t52 10t51.5 -9.5t40.5 -27t27 -41t10 -50.5q0 -28 -9.5 -51.5 t-27 -41t-41 -27t-51.5 -9.5q-29 0 -53 10t-41 27t-27 41t-10 51z" />
<glyph unicode="&#x2c6;" horiz-adv-x="853" d="M78 1053l219 337h256l221 -337h-154l-194 165l-196 -165h-152z" />
<glyph unicode="&#x2dc;" horiz-adv-x="853" d="M76 1081q20 128 77 193t152 65q34 0 67 -10t65 -22t63 -22t62 -10q37 0 58.5 19.5t37.5 64.5h117q-15 -121 -73.5 -189t-155.5 -68q-35 0 -68 10t-64.5 22.5t-61.5 22.5t-58 10q-38 0 -62 -23t-38 -63h-118z" />
<glyph unicode="&#x2000;" horiz-adv-x="940" />
<glyph unicode="&#x2001;" horiz-adv-x="1880" />
<glyph unicode="&#x2002;" horiz-adv-x="940" />
<glyph unicode="&#x2003;" horiz-adv-x="1880" />
<glyph unicode="&#x2004;" horiz-adv-x="626" />
<glyph unicode="&#x2005;" horiz-adv-x="470" />
<glyph unicode="&#x2006;" horiz-adv-x="313" />
<glyph unicode="&#x2007;" horiz-adv-x="313" />
<glyph unicode="&#x2008;" horiz-adv-x="235" />
<glyph unicode="&#x2009;" horiz-adv-x="376" />
<glyph unicode="&#x200a;" horiz-adv-x="104" />
<glyph unicode="&#x2010;" horiz-adv-x="828" d="M82 327v265h661v-265h-661z" />
<glyph unicode="&#x2011;" horiz-adv-x="828" d="M82 327v265h661v-265h-661z" />
<glyph unicode="&#x2012;" horiz-adv-x="828" d="M82 327v265h661v-265h-661z" />
<glyph unicode="&#x2013;" horiz-adv-x="1024" d="M-6 413v227h1036v-227h-1036z" />
<glyph unicode="&#x2014;" horiz-adv-x="2048" d="M-6 413v227h2060v-227h-2060z" />
<glyph unicode="&#x2018;" horiz-adv-x="646" d="M182 1119q0 65 21.5 106.5t58 65t86 32.5t105.5 9h24l1 -151q-45 -8 -58 -34.5t-13 -70.5v-22.5t0.5 -26t1 -23.5t1.5 -15l79 29q2 -21 5.5 -52.5t7.5 -65.5t7.5 -65.5t5.5 -52.5h-287q-6 41 -14 84t-15 86t-12 85t-5 82z" />
<glyph unicode="&#x2019;" horiz-adv-x="646" d="M182 1332h287q6 -41 14 -84t15 -86t12 -85t5 -82q0 -65 -21.5 -106.5t-58 -65t-86 -32.5t-105.5 -9h-24l-1 151q45 8 58 34.5t13 70.5v22.5t-0.5 26t-1 23t-1.5 15.5l-79 -29q-2 21 -5.5 52.5t-7.5 65.5t-7.5 65.5t-5.5 52.5z" />
<glyph unicode="&#x201a;" horiz-adv-x="646" d="M120 -171q31 6 49.5 25t28 43t12.5 48l5 40l-60 24l28 242h327l-41 -229q-24 -140 -97 -223.5t-180 -96.5z" />
<glyph unicode="&#x201c;" horiz-adv-x="1034" d="M182 1119q0 65 21.5 106.5t58 65t86 32.5t105.5 9h24l1 -151q-45 -8 -58 -34.5t-13 -70.5v-22.5t0.5 -26t1 -23.5t1.5 -15l79 29q2 -21 5.5 -52.5t7.5 -65.5t7.5 -65.5t5.5 -52.5h-287q-6 41 -14 84t-15 86t-12 85t-5 82zM599 1119q0 65 21.5 106.5t58 65t86 32.5 t105.5 9h24l1 -151q-45 -8 -58 -34.5t-13 -70.5v-22.5t0.5 -26t1 -23.5t1.5 -15l79 29q2 -21 5.5 -52.5t7.5 -65.5t7.5 -65.5t5.5 -52.5h-287q-6 41 -14 84t-15 86t-12 85t-5 82z" />
<glyph unicode="&#x201d;" horiz-adv-x="1034" d="M182 1332h287q6 -41 14 -84t15 -86t12 -85t5 -82q0 -65 -21.5 -106.5t-58 -65t-86 -32.5t-105.5 -9h-24l-1 151q45 8 58 34.5t13 70.5v22.5t-0.5 26t-1 23t-1.5 15.5l-79 -29q-2 21 -5.5 52.5t-7.5 65.5t-7.5 65.5t-5.5 52.5zM599 1332h287q6 -41 14 -84t15 -86t12 -85 t5 -82q0 -65 -21.5 -106.5t-58 -65t-86 -32.5t-105.5 -9h-24l-1 151q45 8 58 34.5t13 70.5v22.5t-0.5 26t-1 23t-1.5 15.5l-79 -29q-2 21 -5.5 52.5t-7.5 65.5t-7.5 65.5t-5.5 52.5z" />
<glyph unicode="&#x201e;" horiz-adv-x="1161" d="M121 -171q31 6 49 25t27.5 43t13 48t5.5 40l-60 24l27 242h327l-40 -229q-24 -140 -97 -223.5t-181 -96.5zM645 -171q31 4 49 22.5t27 41.5t12 46.5t5 38.5l-61 23l30 250h327q-1 -5 -4 -22.5t-7 -40t-8 -48.5t-8 -48.5t-7.5 -40l-4.5 -22.5q-24 -142 -96 -228t-182 -99z " />
<glyph unicode="&#x2022;" horiz-adv-x="1160" d="M275 731q0 62 24.5 116.5t66 95.5t97 65t117.5 24t117 -24t96.5 -65.5t65.5 -96t24 -115.5t-24.5 -115.5t-66 -96t-96.5 -65.5t-117 -24q-63 0 -118.5 24t-96.5 65.5t-65 96t-24 115.5z" />
<glyph unicode="&#x2026;" horiz-adv-x="1938" d="M145 110q0 52 46 86.5t127 34.5q39 0 70.5 -9t54 -24.5t35 -38t12.5 -49.5q0 -53 -44 -87.5t-128 -34.5q-82 0 -127.5 32t-45.5 90zM791 110q0 52 46 86.5t127 34.5q39 0 70.5 -9t54 -24.5t35 -38t12.5 -49.5q0 -53 -44 -87.5t-128 -34.5q-82 0 -127.5 32t-45.5 90z M1437 110q0 52 46 86.5t127 34.5q39 0 70.5 -9t54 -24.5t35 -38t12.5 -49.5q0 -53 -44 -87.5t-128 -34.5q-82 0 -127.5 32t-45.5 90z" />
<glyph unicode="&#x202f;" horiz-adv-x="376" />
<glyph unicode="&#x2039;" horiz-adv-x="686" d="M83 456l252 395h285l-256 -395l256 -397h-285z" />
<glyph unicode="&#x203a;" horiz-adv-x="686" d="M77 59l243 397l-243 395h286l239 -395l-239 -397h-286z" />
<glyph unicode="&#x205f;" horiz-adv-x="470" />
<glyph unicode="&#x20ac;" horiz-adv-x="1360" d="M31 498v128h111q-2 15 -2 30.5v29.5v35.5t2 35.5h-111v129h128q21 103 64.5 196t108.5 164t152 113t194 42q103 0 192.5 -31.5t152.5 -94.5v99h233v-407h-245q-13 44 -37 81.5t-55 64.5t-68 42.5t-76 15.5q-48 0 -89 -24t-73.5 -64t-56 -91.5t-38.5 -105.5h311v-129h-333 q-2 -16 -2 -32.5v-33.5v-33t2 -32h333v-128h-311q14 -55 37.5 -106.5t56.5 -91.5t76.5 -64.5t97.5 -24.5q49 0 88 19.5t69.5 52.5t53.5 77t41 92l238 -83q-23 -71 -60.5 -140t-97.5 -124t-148 -89t-212 -34q-148 0 -253 45t-176 118t-112 165.5t-59 187.5h-127z" />
<glyph unicode="&#x2122;" horiz-adv-x="1792" d="M159 1263v138h611l3 -138h-34q0 25 -5 40t-12.5 22.5t-17.5 9.5t-19 2h-143v-523q0 -5 1 -11.5t8.5 -12.5t23.5 -10t45 -4v-45h-313v45q29 0 45 3.5t23.5 9t8.5 12.5t1 14v522h-148q-8 0 -17 -2t-16 -9.5t-11.5 -22.5t-4.5 -40h-29zM816 731v52q29 0 44.5 3.5t23 8.5 t8.5 11.5t1 12.5v509q0 3 -1 7t-8 7.5t-22 6.5t-42 3v49h280l141 -437h2l144 437h272v-40q-25 0 -38.5 -4t-20 -9.5t-7.5 -12.5t-1 -13v-501q0 -7 1 -14t8 -12t22 -8.5t42 -3.5v-52h-285v53q24 0 37.5 3t20 8t7.5 11.5t1 14.5v444h-2l-172 -535h-86l-171 537h-2v-449 q0 -8 1 -14t8 -10.5t22 -7t43 -2.5v-53h-271z" />
<glyph unicode="&#x25fc;" horiz-adv-x="910" d="M0 0v910h910v-910h-910z" />
<glyph unicode="&#xfb01;" horiz-adv-x="1405" d="M53 748v160h142v137q0 55 22.5 97.5t62 75t93 55t116 37t130.5 21t136 6.5q93 0 180 -14.5t154.5 -40t108 -60t40.5 -73.5q0 -56 -46.5 -82t-126.5 -26q-32 0 -58.5 2.5t-48 9.5t-36.5 20t-22 33q-9 21 -29.5 37t-46 27.5t-53.5 17t-53 5.5q-110 0 -163.5 -35t-53.5 -122 v-128h317q39 0 76 -0.5t72 -0.5q65 0 132.5 1t137.5 4v-658q0 -31 4.5 -49t17 -27.5t35.5 -12.5t60 -3v-162q-34 0 -75.5 0.5t-84 0.5t-82 0.5t-69.5 0.5q-36 0 -67 -0.5t-59 -0.5t-55 -0.5t-55 -0.5v162q42 0 66.5 2.5t37.5 12t17 27.5t4 50v438q0 20 -6.5 31.5t-20.5 16.5 t-35.5 6.5t-50.5 1.5h-317v-509q0 -29 11 -44.5t31.5 -23t50.5 -8.5t69 -1v-162q-59 0 -120 1q-52 0 -113 0.5t-117 0.5q-40 0 -84 -0.5t-81 -0.5q-43 -1 -85 -1v77v29t0.5 26t0.5 20v10q40 0 65.5 2t40 10t20 24t5.5 44v506h-142z" />
<glyph unicode="&#xfb02;" horiz-adv-x="1412" d="M53 748v160h142v63q0 186 110.5 276t327.5 90q75 0 151.5 -4t153 -8.5t152 -8t150.5 -3.5v-1048q0 -32 5 -52t18.5 -31t37 -15.5t60.5 -4.5v-162h-67t-67.5 0.5t-72.5 1t-81 0.5q-80 0 -141 -1t-123 -1v162q47 0 72.5 6t37.5 20.5t14 38.5t2 60v748q0 48 -1.5 75.5t-4 42 t-6.5 18.5t-9 4h-244q-57 0 -90.5 -15.5t-51 -43.5t-22.5 -67.5t-5 -86.5v-54h213v-160h-213v-509q0 -29 11 -44.5t31.5 -23t50.5 -8.5t69 -1v-162q-59 0 -120 1q-52 0 -113 0.5t-117 0.5q-40 0 -84 -0.5t-81 -0.5q-43 -1 -85 -1v77v29t0.5 26t0.5 20v10q40 0 65.5 2t40 10 t20 24t5.5 44v506h-142z" />
</font>
</defs>
</svg>
